<?xml version="1.0" standalone="no"?>
<!DOCTYPE svg PUBLIC "-//W3C//DTD SVG 1.1//EN" "http://www.w3.org/Graphics/SVG/1.1/DTD/svg11.dtd" >
<svg xmlns="http://www.w3.org/2000/svg" xmlns:xlink="http://www.w3.org/1999/xlink" version="1.1">
<metadata>
Created by FontForge 20201107 at Mon Apr  2 19:01:13 2012
 By 
Copyright (c) 2011-2012, Jovanny Lemonad (jovanny.ru), with Reserved Font Name "Russo"
</metadata>
<defs>
<font id="RussoOne-Regular" horiz-adv-x="630" >
  <font-face 
    font-family="Russo One"
    font-weight="400"
    font-stretch="normal"
    units-per-em="1000"
    panose-1="2 0 5 3 5 0 0 2 0 4"
    ascent="800"
    descent="-200"
    x-height="530"
    cap-height="700"
    bbox="-260 -279 1210 926"
    underline-thickness="50"
    underline-position="-100"
    unicode-range="U+0020-2122"
  />
<missing-glyph horiz-adv-x="300" 
 />
    <glyph glyph-name=".notdef" horiz-adv-x="300" 
 />
    <glyph glyph-name=".null" horiz-adv-x="0" 
 />
    <glyph glyph-name="nonmarkingreturn" horiz-adv-x="300" 
 />
    <glyph glyph-name="space" unicode=" " horiz-adv-x="300" 
 />
    <glyph glyph-name="space" unicode="&#xa0;" horiz-adv-x="300" 
 />
    <glyph glyph-name="exclam" unicode="!" horiz-adv-x="280" 
d="M50 150h180v-150h-180v150zM70 210l-20 210v280h180v-280l-20 -210h-140z" />
    <glyph glyph-name="quotedbl" unicode="&#x22;" horiz-adv-x="400" 
d="M50 450l-20 160v90h150v-90l-20 -160h-110zM240 450l-20 160v90h150v-90l-20 -160h-110z" />
    <glyph glyph-name="numbersign" unicode="#" horiz-adv-x="730" 
d="M70 0l32 150h-92v130h120l30 140h-110v130h138l32 150h160l-32 -150h120l32 150h160l-32 -150h92v-130h-120l-30 -140h110v-130h-138l-32 -150h-160l32 150h-120l-32 -150h-160zM290 280h120l30 140h-120z" />
    <glyph glyph-name="dollar" unicode="$" horiz-adv-x="629" 
d="M39 145q232 -15 330 -15q23 0 36.5 13.5t13.5 36.5v100h-189q-105 0 -152.5 47.5t-47.5 152.5v20q0 105 47.5 152.5t152.5 47.5h20l-10 90h150l-10 -90h160v-140h-270q-60 0 -60 -60v-20q0 -60 60 -60h139q98 0 144 -46t46 -144v-50q0 -98 -45.5 -144t-143.5 -46h-28
l8 -90h-150l10 95q-116 6 -211 15v135z" />
    <glyph glyph-name="percent" unicode="%" horiz-adv-x="860" 
d="M150 0l400 700h150l-390 -700h-160zM360 465q0 -60 -32.5 -92.5t-92.5 -32.5h-90q-60 0 -92.5 32.5t-32.5 92.5v120q0 60 32.5 92.5t92.5 32.5h90q60 0 92.5 -32.5t32.5 -92.5v-120zM240 585q0 35 -35 35h-30q-35 0 -35 -35v-120q0 -35 35 -35h30q35 0 35 35v120z
M840 115q0 -60 -32.5 -92.5t-92.5 -32.5h-90q-60 0 -92.5 32.5t-32.5 92.5v120q0 60 32.5 92.5t92.5 32.5h90q60 0 92.5 -32.5t32.5 -92.5v-120zM720 235q0 35 -35 35h-30q-35 0 -35 -35v-120q0 -35 35 -35h30q35 0 35 35v120z" />
    <glyph glyph-name="ampersand" unicode="&#x26;" horiz-adv-x="720" 
d="M630 10q-227 -20 -410 -20q-98 0 -144 46t-46 144q0 76 38 126q30 40 82 54q-45 15 -72.5 52.5t-27.5 97.5v10q0 91 46 135.5t144 44.5h320v-140h-270q-60 0 -60 -60v-30q0 -60 60 -60h160l15 80h165v-80h80v-140h-80v-260zM260 130q110 0 190 5v135h-180q-60 0 -60 -60
v-30q0 -23 13.5 -36.5t36.5 -13.5z" />
    <glyph glyph-name="quotesingle" unicode="'" horiz-adv-x="210" 
d="M50 450l-20 160v90h150v-90l-20 -160h-110z" />
    <glyph glyph-name="parenleft" unicode="(" horiz-adv-x="325" 
d="M210 295q0 -264 125 -455l-85 -70q-106 98 -163 234t-57 291t57 291t163 234l85 -70q-125 -191 -125 -455z" />
    <glyph glyph-name="parenright" unicode=")" horiz-adv-x="325" 
d="M115 295q0 264 -125 455l85 70q106 -98 163 -234t57 -291t-57 -291t-163 -234l-85 70q125 191 125 455z" />
    <glyph glyph-name="asterisk" unicode="*" horiz-adv-x="495" 
d="M310 365v-125h-125v125l-115 -65l-60 100l120 70l-120 70l60 100l115 -65v125h125v-125l115 65l60 -100l-120 -70l120 -70l-60 -100z" />
    <glyph glyph-name="plus" unicode="+" horiz-adv-x="540" 
d="M340 420h170v-140h-170v-170h-140v170h-170v140h170v170h140v-170z" />
    <glyph glyph-name="comma" unicode="," horiz-adv-x="240" 
d="M30 150h180v-140l-70 -110h-90l40 100h-60v150z" />
    <glyph glyph-name="hyphen" unicode="-" horiz-adv-x="470" 
d="M30 280v140h410v-140h-410z" />
    <glyph glyph-name="period" unicode="." horiz-adv-x="240" 
d="M30 150h180v-150h-180v150z" />
    <glyph glyph-name="slash" unicode="/" horiz-adv-x="470" 
d="M0 0l300 700h170l-290 -700h-180z" />
    <glyph glyph-name="zero" unicode="0" horiz-adv-x="670" 
d="M450 510q0 60 -60 60h-110q-60 0 -60 -60v-320q0 -60 60 -60h110q60 0 60 60v320zM630 190q0 -105 -47.5 -152.5t-152.5 -47.5h-190q-105 0 -152.5 47.5t-47.5 152.5v320q0 105 47.5 152.5t152.5 47.5h190q105 0 152.5 -47.5t47.5 -152.5v-320z" />
    <glyph glyph-name="one" unicode="1" horiz-adv-x="405" 
d="M165 0v545l-115 -40l-50 115l185 80h160v-700h-180z" />
    <glyph glyph-name="two" unicode="2" horiz-adv-x="590" 
d="M560 480q0 -85 -72 -147q-22 -19 -48 -38l-215 -155h335v-140h-540v190l360 260v50q0 60 -60 60h-280v140h320q105 0 152.5 -47.5t47.5 -152.5v-20z" />
    <glyph glyph-name="three" unicode="3" horiz-adv-x="610" 
d="M390 -10q-167 0 -370 20v135q221 -15 330 -15q23 0 36.5 13.5t13.5 36.5v40q0 60 -60 60h-210v140h190q60 0 60 60v20q0 60 -60 60h-290v140h340q98 0 144 -44.5t46 -135.5q0 -60 -27.5 -97.5t-72.5 -52.5q81 -22 110 -108q10 -31 10 -72v-10q0 -98 -46 -144t-144 -46z
" />
    <glyph glyph-name="four" unicode="4" horiz-adv-x="650" 
d="M390 140h-370v140l240 420h200l-240 -420h170v150h180v-150h70v-140h-70v-140h-180v140z" />
    <glyph glyph-name="five" unicode="5" horiz-adv-x="600" 
d="M390 -10q-167 0 -370 20v135q221 -15 330 -15q23 0 36.5 13.5t13.5 36.5v50q0 60 -60 60h-290v410h480v-140h-300v-130h160q98 0 144 -44.5t46 -135.5v-70q0 -98 -46 -144t-144 -46z" />
    <glyph glyph-name="six" unicode="6" 
d="M230 710q137 0 330 -20v-135q-55 3 -93.5 5.5t-63 4t-48.5 3.5q-40 2 -74 2q-61 0 -61 -50v-90q97 20 170 20h70q68 0 109 -41t41 -109v-130q0 -91 -46 -135.5t-144 -44.5h-190q-98 0 -144 44.5t-46 135.5v350q0 98 46 144t144 46zM340 310q-38 0 -69.5 -4t-50.5 -6v-110
q0 -60 60 -60h90q60 0 60 60v85q0 15 -10 25t-25 10h-55z" />
    <glyph glyph-name="seven" unicode="7" horiz-adv-x="560" 
d="M10 700h540v-140l-230 -560h-200l240 560h-350v140z" />
    <glyph glyph-name="eight" unicode="8" horiz-adv-x="670" 
d="M270 280q-60 0 -60 -60v-40q0 -23 13.5 -36.5t36.5 -13.5h150q23 0 36.5 13.5t13.5 36.5v40q0 60 -60 60h-130zM290 570q-60 0 -60 -60v-30q0 -60 60 -60h90q60 0 60 60v30q0 60 -60 60h-90zM640 180q0 -98 -46 -144t-144 -46h-230q-98 0 -144 46t-46 144v10q0 76 38 126
q30 40 82 54q-45 15 -72.5 52.5t-27.5 97.5v10q0 91 46 135.5t144 44.5h190q98 0 144 -44.5t46 -135.5v-10q0 -60 -27.5 -97.5t-72.5 -52.5q81 -22 110 -108q10 -31 10 -72v-10z" />
    <glyph glyph-name="nine" unicode="9" 
d="M70 145q206 -15 290 -15q23 0 36.5 13.5t13.5 36.5v90q-97 -20 -170 -20h-70q-68 0 -109 41t-41 109v130q0 91 46 135.5t144 44.5h190q98 0 144 -44.5t46 -135.5v-350q0 -98 -46 -144t-144 -46q-137 0 -330 20v135zM290 390q57 0 120 10v110q0 60 -60 60h-90
q-60 0 -60 -60v-85q0 -15 10 -25t25 -10h55z" />
    <glyph glyph-name="colon" unicode=":" horiz-adv-x="240" 
d="M30 150h180v-150h-180v150zM30 530h180v-150h-180v150z" />
    <glyph glyph-name="semicolon" unicode=";" horiz-adv-x="240" 
d="M30 530h180v-150h-180v150zM30 150h180v-140l-70 -110h-90l50 100h-70v150z" />
    <glyph glyph-name="less" unicode="&#x3c;" horiz-adv-x="510" 
d="M470 150v-150l-450 200v130l450 200v-150l-285 -115z" />
    <glyph glyph-name="equal" unicode="=" horiz-adv-x="490" 
d="M40 390v130h410v-130h-410zM40 180v130h410v-130h-410z" />
    <glyph glyph-name="greater" unicode="&#x3e;" horiz-adv-x="510" 
d="M325 265l-285 115v150l450 -200v-130l-450 -200v150z" />
    <glyph glyph-name="question" unicode="?" horiz-adv-x="580" 
d="M10 690q193 20 360 20q98 0 144 -46t46 -144v-45q0 -75 -30 -114q-30 -40 -105 -66l-100 -35v-50h-180v140l235 85v85q0 23 -13.5 36.5t-46.5 13.5q-60 0 -155.5 -6t-154.5 -9v135zM145 150h180v-150h-180v150z" />
    <glyph glyph-name="at" unicode="@" horiz-adv-x="770" 
d="M650 10q-213 -20 -390 -20q-106 0 -163 57t-57 163v280q0 106 57 163t163 57h320q75 0 117.5 -42.5t42.5 -117.5v-370h-140l-10 50q-44 -31 -87 -45.5t-73 -14.5h-20q-68 0 -109 41t-41 109v35q0 68 41 109t109 41h170v30q0 19 -13 32t-32 13h-265q-30 0 -50 -20t-20 -50
v-320q0 -30 20 -50t50 -20q129 0 380 15v-125zM480 305q43 0 100 20v55h-115q-15 0 -25 -10t-10 -25v-5q0 -15 10 -25t25 -10h15z" />
    <glyph glyph-name="A" unicode="A" horiz-adv-x="710" 
d="M185 0h-195l265 700h200l265 -700h-195l-45 125h-250zM275 255h160l-80 235z" />
    <glyph glyph-name="B" unicode="B" horiz-adv-x="710" 
d="M60 700h400q98 0 144 -44.5t46 -135.5q0 -60 -26 -97.5t-64 -52.5q81 -22 110 -108q10 -31 10 -72q0 -98 -46 -144t-144 -46h-430v700zM500 220q0 60 -60 60h-200v-140h200q60 0 60 60v20zM470 500q0 60 -60 60h-170v-140h170q60 0 60 60v20z" />
    <glyph glyph-name="C" unicode="C" horiz-adv-x="620" 
d="M600 10q-223 -20 -370 -20q-98 0 -144 46t-46 144v320q0 105 47.5 152.5t152.5 47.5h360v-140h-320q-60 0 -60 -60v-320q0 -23 13.5 -36.5t34.5 -13.5t46 0.5t52 1.5t54.5 2t71 4t108.5 7v-135z" />
    <glyph glyph-name="D" unicode="D" horiz-adv-x="720" 
d="M450 700q113 0 171.5 -58.5t58.5 -171.5v-240q0 -113 -58.5 -171.5t-171.5 -58.5h-390v700h390zM500 470q0 90 -90 90h-170v-420h170q90 0 90 90v240z" />
    <glyph glyph-name="E" unicode="E" horiz-adv-x="635" 
d="M615 0h-555v700h555v-140h-375v-135h295v-140h-295v-145h375v-140z" />
    <glyph glyph-name="F" unicode="F" horiz-adv-x="625" 
d="M240 0h-180v700h555v-140h-375v-165h295v-140h-295v-255z" />
    <glyph glyph-name="G" unicode="G" horiz-adv-x="700" 
d="M660 15q-234 -25 -430 -25q-98 0 -144 46t-46 144v320q0 105 47.5 152.5t152.5 47.5h360v-140h-320q-60 0 -60 -60v-320q0 -23 13.5 -36.5t36.5 -13.5q115 0 210 5v145h-130v120h310v-385z" />
    <glyph glyph-name="H" unicode="H" horiz-adv-x="730" 
d="M670 0h-180v285h-250v-285h-180v700h180v-275h250v275h180v-700z" />
    <glyph glyph-name="I" unicode="I" horiz-adv-x="420" 
d="M390 0h-360v140h90v420h-90v140h360v-140h-90v-420h90v-140z" />
    <glyph glyph-name="J" unicode="J" horiz-adv-x="460" 
d="M354 36q-46 -46 -141.5 -46t-202.5 10v135q78 -5 160 -5q23 0 36.5 13.5t13.5 36.5v380h-130v140h310v-520q0 -98 -46 -144z" />
    <glyph glyph-name="K" unicode="K" horiz-adv-x="676" 
d="M240 0h-180v700h180v-275h90l156 275h190l-196 -345l195 -355h-190l-155 285h-90v-285z" />
    <glyph glyph-name="L" unicode="L" horiz-adv-x="615" 
d="M240 140h365v-140h-545v700h180v-560z" />
    <glyph glyph-name="M" unicode="M" horiz-adv-x="900" 
d="M660 390l-140 -250h-140l-140 250v-390h-180v700h190l200 -370l200 370h190v-700h-180v390z" />
    <glyph glyph-name="N" unicode="N" horiz-adv-x="730" 
d="M670 0h-190l-240 420v-420h-180v700h190l240 -420v420h180v-700z" />
    <glyph glyph-name="O" unicode="O" horiz-adv-x="730" 
d="M510 510q0 60 -60 60h-170q-60 0 -60 -60v-320q0 -60 60 -60h170q60 0 60 60v320zM690 190q0 -105 -47.5 -152.5t-152.5 -47.5h-250q-105 0 -152.5 47.5t-47.5 152.5v320q0 105 47.5 152.5t152.5 47.5h250q105 0 152.5 -47.5t47.5 -152.5v-320z" />
    <glyph glyph-name="P" unicode="P" horiz-adv-x="710" 
d="M60 700h420q105 0 152.5 -47.5t47.5 -152.5v-100q0 -105 -47.5 -152.5t-152.5 -47.5h-240v-200h-180v700zM500 500q0 60 -60 60h-200v-220h200q60 0 60 60v100z" />
    <glyph glyph-name="Q" unicode="Q" horiz-adv-x="730" 
d="M550 -160q-70 -10 -134 -10t-105 41t-41 109v10h-30q-105 0 -152.5 47.5t-47.5 152.5v320q0 105 47.5 152.5t152.5 47.5h250q105 0 152.5 -47.5t47.5 -152.5v-320q0 -105 -47.5 -152.5t-152.5 -47.5h-50v-10q0 -15 10 -25t25 -10h75v-105zM510 510q0 60 -60 60h-170
q-60 0 -60 -60v-320q0 -60 60 -60h170q60 0 60 60v320z" />
    <glyph glyph-name="R" unicode="R" horiz-adv-x="720" 
d="M60 700h420q105 0 152.5 -47.5t47.5 -152.5v-90q0 -83 -27.5 -129t-87.5 -61l125 -220h-195l-115 210h-140v-210h-180v700zM500 500q0 60 -60 60h-200v-210h200q60 0 60 60v90z" />
    <glyph glyph-name="S" unicode="S" horiz-adv-x="670" 
d="M39 145q274 -15 371 -15q23 0 36.5 13.5t13.5 36.5v90h-230q-105 0 -152.5 47.5t-47.5 152.5v30q0 105 47.5 152.5t152.5 47.5h351v-140h-311q-60 0 -60 -60v-20q0 -60 60 -60h180q98 0 144 -46t46 -144v-50q0 -98 -46 -144t-144 -46q-51 0 -108 2l-92 4q-102 5 -211 14
v135z" />
    <glyph glyph-name="T" unicode="T" horiz-adv-x="620" 
d="M400 0h-180v560h-210v140h600v-140h-210v-560z" />
    <glyph glyph-name="U" unicode="U" horiz-adv-x="750" 
d="M510 700h180v-510q0 -105 -47.5 -152.5t-152.5 -47.5h-230q-105 0 -152.5 47.5t-47.5 152.5v510h180v-510q0 -60 60 -60h150q60 0 60 60v510z" />
    <glyph glyph-name="V" unicode="V" horiz-adv-x="710" 
d="M355 210l170 490h195l-265 -700h-200l-265 700h195z" />
    <glyph glyph-name="W" unicode="W" horiz-adv-x="980" 
d="M570 700l120 -450l105 450h195l-190 -700h-190l-120 435l-120 -435h-190l-190 700h195l105 -450l120 450h160z" />
    <glyph glyph-name="X" unicode="X" horiz-adv-x="660" 
d="M465 700h200l-225 -350l230 -350h-200l-140 220l-140 -220h-200l230 350l-225 350h199l136 -220z" />
    <glyph glyph-name="Y" unicode="Y" horiz-adv-x="670" 
d="M-20 700h190l165 -340l165 340h190l-265 -515v-185h-180v185z" />
    <glyph glyph-name="Z" unicode="Z" horiz-adv-x="610" 
d="M590 560l-350 -420h350v-140h-570v140l350 420h-350v140h570v-140z" />
    <glyph glyph-name="bracketleft" unicode="[" horiz-adv-x="360" 
d="M60 800h300v-140h-120v-730h120v-140h-300v1010z" />
    <glyph glyph-name="backslash" unicode="\" horiz-adv-x="470" 
d="M290 0l-290 700h170l300 -700h-180z" />
    <glyph glyph-name="bracketright" unicode="]" horiz-adv-x="360" 
d="M300 -210h-300v140h120v730h-120v140h300v-1010z" />
    <glyph glyph-name="asciicircum" unicode="^" horiz-adv-x="510" 
d="M330 700l180 -300h-150l-105 180l-105 -180h-150l180 300h150z" />
    <glyph glyph-name="underscore" unicode="_" horiz-adv-x="470" 
d="M30 -190v140h410v-140h-410z" />
    <glyph glyph-name="grave" unicode="`" horiz-adv-x="250" 
d="M110 540l-110 170h170l60 -170h-120z" />
    <glyph glyph-name="a" unicode="a" horiz-adv-x="595" 
d="M260 130q53 0 120 20v60h-145q-15 0 -25 -10t-10 -25v-10q0 -15 10 -25t25 -10h25zM75 520q183 20 330 20q68 0 109 -41t41 -109v-390h-155l-10 50q-47 -31 -96.5 -45.5t-83.5 -14.5h-35q-68 0 -109 41t-41 109v45q0 68 41 109t109 41h205v40q0 15 -10 25t-25 10
q-65 0 -143.5 -6t-126.5 -9v125z" />
    <glyph glyph-name="b" unicode="b" horiz-adv-x="620" 
d="M405 370q0 15 -10 25t-25 10h-25q-42 0 -72.5 -4t-47.5 -6v-260h140q40 0 40 40v195zM225 520q97 20 170 20h35q68 0 109 -41t41 -109v-230q0 -75 -42.5 -117.5t-117.5 -42.5h-370v700h175v-180z" />
    <glyph glyph-name="c" unicode="c" horiz-adv-x="550" 
d="M520 10q-187 -20 -330 -20q-68 0 -109 41t-41 109v230q0 75 42.5 117.5t117.5 42.5h320v-135h-265q-40 0 -40 -40v-195q0 -15 10 -25t25 -10q90 0 270 15v-130z" />
    <glyph glyph-name="d" unicode="d" 
d="M425 0l-10 50q-47 -31 -96.5 -45.5t-83.5 -14.5h-45q-68 0 -109 41t-41 109v230q0 75 42.5 117.5t117.5 42.5h205v170h175v-700h-155zM285 135q53 0 120 20v240h-150q-40 0 -40 -40v-185q0 -15 10 -25t25 -10h35z" />
    <glyph glyph-name="e" unicode="e" horiz-adv-x="600" 
d="M255 415q-40 0 -40 -40v-55h170v55q0 40 -40 40h-90zM540 10q-193 -20 -350 -20q-68 0 -109 41t-41 109v240q0 75 42.5 117.5t117.5 42.5h200q75 0 117.5 -42.5t42.5 -117.5v-185h-345v-40q0 -15 10 -25t25 -10q99 0 290 15v-125z" />
    <glyph glyph-name="f" unicode="f" horiz-adv-x="450" 
d="M480 565q-29 2 -77 6t-83 4t-45 -10t-10 -25v-50h165v-135h-165v-355h-175v355h-70v135h70v70q0 68 41 109t109 41q61 0 129 -4t111 -6v-135z" />
    <glyph glyph-name="g" unicode="g" horiz-adv-x="620" 
d="M395 40q-97 -20 -170 -20h-35q-68 0 -109 41t-41 109v200q0 75 42.5 117.5t117.5 42.5h370v-560q0 -68 -41 -109t-109 -41q-157 0 -350 20v130q191 -15 290 -15q15 0 25 10t10 25v50zM275 155q63 0 120 10v230h-140q-40 0 -40 -40v-165q0 -15 10 -25t25 -10h25z" />
    <glyph glyph-name="h" unicode="h" 
d="M225 520q97 20 170 20h45q68 0 109 -41t41 -109v-390h-175v370q0 15 -10 25t-25 10h-35q-38 0 -69.5 -4t-50.5 -6v-395h-175v700h175v-180z" />
    <glyph glyph-name="i" unicode="i" horiz-adv-x="320" 
d="M270 510v-510h-175v375h-75v135h250zM95 710h175v-140h-175v140z" />
    <glyph glyph-name="j" unicode="j" horiz-adv-x="300" 
d="M100 -180q-93 0 -190 10v130h130q15 0 25 10t10 25v515h175v-540q0 -68 -41 -109t-109 -41zM75 710h175v-140h-175v140z" />
    <glyph glyph-name="k" unicode="k" horiz-adv-x="600" 
d="M225 210v-210h-175v700h175v-355h80l110 185h185l-150 -255l150 -275h-185l-115 210h-75z" />
    <glyph glyph-name="l" unicode="l" horiz-adv-x="340" 
d="M320 0q-67 -10 -127.5 -10t-101.5 41t-41 109v560h175v-535q0 -15 10 -25t25 -10h60v-130z" />
    <glyph glyph-name="m" unicode="m" horiz-adv-x="925" 
d="M405 540q81 0 125 -60q46 31 99.5 45.5t95.5 14.5h10q68 0 109 -41t41 -109v-390h-175v360q0 15 -10 25t-25 10h-5q-45 0 -115 -20v-375h-175v360q0 15 -10 25t-25 10h-5q-45 0 -115 -20v-375h-175v530h155l10 -50q47 31 96.5 45.5t83.5 14.5h10z" />
    <glyph glyph-name="n" unicode="n" 
d="M345 395q-53 0 -120 -20v-375h-175v530h155l10 -50q47 31 96.5 45.5t83.5 14.5h45q68 0 109 -41t41 -109v-390h-175v360q0 15 -10 25t-25 10h-35z" />
    <glyph glyph-name="o" unicode="o" 
d="M590 150q0 -75 -42.5 -117.5t-117.5 -42.5h-230q-75 0 -117.5 42.5t-42.5 117.5v230q0 75 42.5 117.5t117.5 42.5h230q75 0 117.5 -42.5t42.5 -117.5v-230zM415 365q0 40 -40 40h-120q-40 0 -40 -40v-200q0 -40 40 -40h120q40 0 40 40v200z" />
    <glyph glyph-name="p" unicode="p" 
d="M345 395q-53 0 -120 -20v-240h150q40 0 40 40v185q0 15 -10 25t-25 10h-35zM225 0v-170h-175v700h155l10 -50q47 31 96.5 45.5t83.5 14.5h45q68 0 109 -41t41 -109v-230q0 -75 -42.5 -117.5t-117.5 -42.5h-205z" />
    <glyph glyph-name="q" unicode="q" horiz-adv-x="620" 
d="M275 125q63 0 120 10v260h-140q-40 0 -40 -40v-195q0 -15 10 -25t25 -10h25zM395 10q-97 -20 -170 -20h-35q-68 0 -109 41t-41 109v230q0 75 42.5 117.5t117.5 42.5h370v-700h-175v180z" />
    <glyph glyph-name="r" unicode="r" horiz-adv-x="460" 
d="M355 385q-63 0 -130 -30v-355h-175v530h155l10 -65q86 75 180 75h45v-155h-85z" />
    <glyph glyph-name="s" unicode="s" horiz-adv-x="580" 
d="M30 140q203 -15 320 -15q15 0 25 10t10 25v35h-215q-68 0 -109 41t-41 109v35q0 68 41 109t109 41h340v-130h-280q-15 0 -25 -10t-10 -25t10 -25t25 -10h180q68 0 109 -41t41 -109v-40q0 -68 -41 -109t-109 -41q-177 0 -380 20v130z" />
    <glyph glyph-name="t" unicode="t" horiz-adv-x="440" 
d="M420 0q-97 -10 -190 -10q-68 0 -109 41t-41 109v255h-60v135h60l20 120h155v-120h125v-135h-125v-230q0 -15 10 -25t25 -10h130v-130z" />
    <glyph glyph-name="u" unicode="u" horiz-adv-x="640" 
d="M295 135q53 0 120 20v375h175v-530h-155l-10 50q-47 -31 -96.5 -45.5t-83.5 -14.5h-45q-68 0 -109 41t-41 109v390h175v-360q0 -15 10 -25t25 -10h35z" />
    <glyph glyph-name="v" unicode="v" horiz-adv-x="580" 
d="M405 530h185l-200 -530h-200l-200 530h185l115 -360z" />
    <glyph glyph-name="w" unicode="w" horiz-adv-x="880" 
d="M610 210l90 320h190l-165 -530h-185l-100 320l-100 -320h-185l-165 530h190l90 -320l90 320h160z" />
    <glyph glyph-name="x" unicode="x" horiz-adv-x="550" 
d="M360 530h195l-160 -265l165 -265h-195l-90 160l-90 -160h-195l165 265l-160 265h195l85 -160z" />
    <glyph glyph-name="y" unicode="y" horiz-adv-x="570" 
d="M190 -180q-53 0 -130 10v130h90q38 0 49.5 21t-4.5 59l-205 490h185l125 -340l105 340h185l-200 -550q-29 -79 -75 -119.5t-125 -40.5z" />
    <glyph glyph-name="z" unicode="z" horiz-adv-x="535" 
d="M515 395l-275 -260h275v-135h-495v135l275 260h-275v135h495v-135z" />
    <glyph glyph-name="braceleft" unicode="{" horiz-adv-x="370" 
d="M180 295q90 -38 90 -125v-205q0 -15 10 -25t25 -10h65v-140h-130q-68 0 -109 41t-41 109v250q0 15 -10 25t-25 10h-45v140h45q15 0 25 10t10 25v250q0 68 41 109t109 41h130v-140h-65q-15 0 -25 -10t-10 -25v-205q0 -87 -90 -125z" />
    <glyph glyph-name="bar" unicode="|" horiz-adv-x="300" 
d="M240 -170h-180v870h180v-870z" />
    <glyph glyph-name="braceright" unicode="}" horiz-adv-x="370" 
d="M190 295q-90 38 -90 125v205q0 15 -10 25t-25 10h-65v140h130q68 0 109 -41t41 -109v-250q0 -15 10 -25t25 -10h45v-140h-45q-15 0 -25 -10t-10 -25v-250q0 -68 -41 -109t-109 -41h-130v140h65q15 0 25 10t10 25v205q0 87 90 125z" />
    <glyph glyph-name="asciitilde" unicode="~" horiz-adv-x="501" 
d="M175 305q-46 0 -90 -55l-75 80q26 65 84 105q29 20 66 20t57.5 -9.5t37 -20.5t32 -20.5t38.5 -9.5q46 0 91 55l75 -80q-28 -67 -85 -106q-29 -19 -66 -19t-57.5 9.5t-37 20.5t-32.5 20.5t-38 9.5z" />
    <glyph glyph-name="exclamdown" unicode="&#xa1;" horiz-adv-x="280" 
d="M50 530h180v-150h-180v150zM210 320l20 -210v-280h-180v280l20 210h140z" />
    <glyph glyph-name="cent" unicode="&#xa2;" horiz-adv-x="550" 
d="M520 10q-65 -7 -150 -12l10 -88h-150l9 81q-13 -1 -25 -1h-24q-68 0 -109 41t-41 109v230q0 75 42.5 117.5t117.5 42.5h40l-10 90h150l-10 -90h150v-135h-265q-40 0 -40 -40v-195q0 -15 10 -25t25 -10q90 0 270 15v-130z" />
    <glyph glyph-name="sterling" unicode="&#xa3;" horiz-adv-x="565" 
d="M260 240q0 -62 -30 -100h325v-140h-535v120q65 0 65 55v120h-70v135h70v130q0 68 41 109t109 41q67 0 143.5 -4t126.5 -6v-135q-35 2 -69 5q-73 5 -141 5q-15 0 -25 -10t-10 -25v-110h155v-135h-155v-55z" />
    <glyph glyph-name="currency" unicode="&#xa4;" horiz-adv-x="730" 
d="M260 0h-180v110h-70l10 105h60v40h-70l10 109h60v336h420q105 0 152.5 -47.5t47.5 -152.5v-40q0 -106 -47 -155.5t-153 -49.5h-240v-40h260v-105h-260v-110zM520 500q0 60 -60 60h-200v-200h200q60 0 60 60v80z" />
    <glyph glyph-name="yen" unicode="&#xa5;" horiz-adv-x="670" 
d="M245 0v130h-155v105h130l-20 40h-110v105h55l-165 320h190l165 -340l165 340h190l-165 -320h55v-105h-110l-20 -40h130v-105h-155v-130h-180z" />
    <glyph glyph-name="brokenbar" unicode="&#xa6;" horiz-adv-x="300" 
d="M240 330h-180v370h180v-370zM60 -170v370h180v-370h-180z" />
    <glyph glyph-name="section" unicode="&#xa7;" horiz-adv-x="590" 
d="M90 405q-60 38 -60 105v40q0 68 41 109t109 41h320v-130h-255q-15 0 -25 -10t-10 -25v-20q0 -29 40 -35l160 -25q72 -11 111 -48.5t39 -101.5v-60q0 -38 -15 -69t-45 -46q60 -38 60 -105v-55q0 -68 -41 -109t-109 -41q-173 0 -370 20v135q188 -15 305 -15q15 0 25 10
t10 25v50l-200 30q-72 11 -111 48.5t-39 101.5v65q0 38 15 69t45 46zM210 245q0 -29 40 -35l95 -15q15 0 25 10t10 25v90l-135 20q-15 0 -25 -10t-10 -25v-60z" />
    <glyph glyph-name="dieresis" unicode="&#xa8;" horiz-adv-x="400" 
d="M230 805h170v-140h-170v140zM0 805h170v-140h-170v140z" />
    <glyph glyph-name="copyright" unicode="&#xa9;" horiz-adv-x="850" 
d="M20 490q0 106 57 163t163 57h370q106 0 163 -57t57 -163v-280q0 -106 -57 -163t-163 -57h-370q-106 0 -163 57t-57 163v280zM680 520q0 30 -20 50t-50 20h-370q-30 0 -50 -20t-20 -50v-340q0 -30 20 -50t50 -20h370q30 0 50 20t20 50v340zM415 255q67 0 180 15v-100
q-131 -15 -230 -15q-57 0 -88.5 31.5t-31.5 88.5v135q0 60 32.5 92.5t92.5 32.5h225v-100h-175q-35 0 -35 -35v-115q0 -30 30 -30z" />
    <glyph glyph-name="ordfeminine" unicode="&#xaa;" horiz-adv-x="365" 
d="M160 425q28 0 65 15v50h-70q-25 0 -25 -25v-15q0 -25 25 -25h5zM230 380q-65 -40 -115 -40h-5q-45 0 -72.5 27.5t-27.5 72.5v30q0 45 27.5 72.5t72.5 27.5h115v30q0 30 -30 30q-35 0 -79 -6t-71 -9v80q27 3 55 7q68 8 127.5 8t88.5 -28t29 -77v-255h-105z" />
    <glyph glyph-name="guillemotleft" unicode="&#xab;" horiz-adv-x="611" 
d="M341 90l-101 -90l-230 265l230 265l101 -89l-152 -176zM439 265l152 -175l-101 -90l-230 265l230 265l101 -89z" />
    <glyph glyph-name="logicalnot" unicode="&#xac;" horiz-adv-x="540" 
d="M500 220h-140v90h-320v140h460v-230z" />
    <glyph glyph-name="uni00AD" unicode="&#xad;" horiz-adv-x="470" 
d="M30 280v140h410v-140h-410z" />
    <glyph glyph-name="registered" unicode="&#xae;" horiz-adv-x="850" 
d="M20 490q0 106 57 163t163 57h370q106 0 163 -57t57 -163v-280q0 -106 -57 -163t-163 -57h-370q-106 0 -163 57t-57 163v280zM680 520q0 30 -20 50t-50 20h-370q-30 0 -50 -20t-20 -50v-340q0 -30 20 -50t50 -20h370q30 0 50 20t20 50v340zM425 265h-40v-100h-140v370h255
q60 0 92.5 -32.5t32.5 -92.5v-10q0 -49 -19.5 -76.5t-45.5 -38.5l65 -120h-145zM450 355q35 0 35 35v20q0 35 -35 35h-65v-90h65z" />
    <glyph glyph-name="macron" unicode="&#xaf;" horiz-adv-x="300" 
d="M0 785h300v-120h-300v120z" />
    <glyph glyph-name="degree" unicode="&#xb0;" horiz-adv-x="390" 
d="M370 465q0 -60 -32.5 -92.5t-92.5 -32.5h-100q-60 0 -92.5 32.5t-32.5 92.5v120q0 60 32.5 92.5t92.5 32.5h100q60 0 92.5 -32.5t32.5 -92.5v-120zM250 585q0 35 -35 35h-40q-35 0 -35 -35v-120q0 -35 35 -35h40q35 0 35 35v120z" />
    <glyph glyph-name="plusminus" unicode="&#xb1;" horiz-adv-x="540" 
d="M340 440h170v-140h-170v-110h155v-140h-450v140h155v110h-170v140h170v150h140v-150z" />
    <glyph glyph-name="twosuperior" unicode="&#xb2;" horiz-adv-x="345" 
d="M325 594q0 -61 -55 -99l-95 -65h150v-90h-305v100l185 130v20q0 30 -30 30h-145v90h180q57 0 86 -28t29 -78v-10z" />
    <glyph glyph-name="threesuperior" unicode="&#xb3;" horiz-adv-x="350" 
d="M215 340q-97 0 -195 15v85q105 -15 160 -15q30 0 30 30t-30 30h-110v80h100q30 0 30 30t-30 30h-145v85h180q57 0 86 -26.5t29 -67.5q0 -60 -53 -78q24 -6 43.5 -27.5t19.5 -68t-29 -74.5t-86 -28z" />
    <glyph glyph-name="acute" unicode="&#xb4;" horiz-adv-x="260" 
d="M10 635l60 170h180l-110 -170h-130z" />
    <glyph glyph-name="mu" unicode="&#xb5;" horiz-adv-x="640" 
d="M425 50q-93 -50 -180 -50h-19v-170h-176v700h176v-350q0 -15 10 -25t25 -10h34q53 0 120 20v365h175v-530h-155z" />
    <glyph glyph-name="mu" unicode="&#x3bc;" horiz-adv-x="640" 
d="M425 50q-93 -50 -180 -50h-19v-170h-176v700h176v-350q0 -15 10 -25t25 -10h34q53 0 120 20v365h175v-530h-155z" />
    <glyph glyph-name="paragraph" unicode="&#xb6;" horiz-adv-x="690" 
d="M62.5 657.5q42.5 42.5 117.5 42.5h490v-140h-90v-730h-155v730h-60v-730h-155v430h-30q-75 0 -117.5 42.5t-42.5 117.5v120q0 75 42.5 117.5z" />
    <glyph glyph-name="periodcentered" unicode="&#xb7;" horiz-adv-x="300" 
d="M60 425h180v-150h-180v150z" />
    <glyph glyph-name="cedilla" unicode="&#xb8;" horiz-adv-x="220" 
d="M110 20v-40h10q49 0 74.5 -24t25.5 -66t-25.5 -66t-74.5 -24h-120v65h100q35 0 35 25t-35 25h-75v105h85z" />
    <glyph glyph-name="onesuperior" unicode="&#xb9;" horiz-adv-x="250" 
d="M100 340v270l-60 -20l-30 75l100 45h110v-370h-120z" />
    <glyph glyph-name="ordmasculine" unicode="&#xba;" horiz-adv-x="380" 
d="M360 465q0 -60 -32.5 -92.5t-92.5 -32.5h-90q-60 0 -92.5 32.5t-32.5 92.5v120q0 60 32.5 92.5t92.5 32.5h90q60 0 92.5 -32.5t32.5 -92.5v-120zM240 585q0 35 -35 35h-30q-35 0 -35 -35v-120q0 -35 35 -35h30q35 0 35 35v120z" />
    <glyph glyph-name="guillemotright" unicode="&#xbb;" horiz-adv-x="611" 
d="M20 441l101 89l230 -265l-230 -265l-101 90l152 175zM422 265l-152 176l101 89l230 -265l-230 -265l-101 90z" />
    <glyph glyph-name="onequarter" unicode="&#xbc;" horiz-adv-x="750" 
d="M70 0l400 700h150l-390 -700h-160zM100 340v270l-60 -20l-30 75l100 45h110v-370h-120zM585 65h-195v90l115 205h125l-115 -205h70v65h110v-65h35v-90h-35v-75h-110v75z" />
    <glyph glyph-name="onehalf" unicode="&#xbd;" horiz-adv-x="785" 
d="M70 0l400 700h150l-390 -700h-160zM100 340v270l-60 -20l-30 75l100 45h110v-370h-120zM755 244q0 -61 -55 -99l-95 -65h150v-90h-305v100l185 130v20q0 30 -30 30h-145v90h180q57 0 86 -28t29 -78v-10z" />
    <glyph glyph-name="threequarters" unicode="&#xbe;" horiz-adv-x="820" 
d="M140 0l400 700h150l-390 -700h-160zM655 65h-195v90l115 205h125l-115 -205h70v65h110v-65h35v-90h-35v-75h-110v75zM215 340q-97 0 -195 15v85q105 -15 160 -15q30 0 30 30t-30 30h-110v80h100q30 0 30 30t-30 30h-145v85h180q57 0 86 -26.5t29 -67.5q0 -60 -53 -78
q24 -6 43.5 -27.5t19.5 -68t-29 -74.5t-86 -28z" />
    <glyph glyph-name="questiondown" unicode="&#xbf;" horiz-adv-x="580" 
d="M570 -160q-193 -20 -360 -20q-98 0 -144 46t-46 144v45q0 75 30 114q31 41 105 66l100 35v50h180v-140l-235 -85v-85q0 -23 13.5 -36.5t36.5 -13.5q99 0 320 15v-135zM435 380h-180v150h180v-150z" />
    <glyph glyph-name="Agrave" unicode="&#xc0;" horiz-adv-x="710" 
d="M0 0zM185 0h-195l265 700h200l265 -700h-195l-45 125h-250zM275 255h160l-80 235zM295 730l-110 170h170l60 -170h-120z" />
    <glyph glyph-name="Aacute" unicode="&#xc1;" horiz-adv-x="710" 
d="M0 0zM185 0h-195l265 700h200l265 -700h-195l-45 125h-250zM275 255h160l-80 235zM285 731l60 170h180l-110 -170h-130z" />
    <glyph glyph-name="Acircumflex" unicode="&#xc2;" horiz-adv-x="710" 
d="M0 0zM185 0h-195l265 700h200l265 -700h-195l-45 125h-250zM275 255h160l-80 235zM165 731l120 170h140l120 -170h-125l-65 80l-65 -80h-125z" />
    <glyph glyph-name="Atilde" unicode="&#xc3;" horiz-adv-x="710" 
d="M0 0zM185 0h-195l265 700h200l265 -700h-195l-45 125h-250zM275 255h160l-80 235zM415 841q32 0 50 40l65 -40q-9 -32 -24 -56q-35 -59 -91 -59q-21 0 -36.5 8t-29 17t-26.5 17t-28 8q-32 0 -50 -40l-65 40q16 62 59 97q22 18 49.5 18t43 -8t29 -17t26.5 -17t28 -8z" />
    <glyph glyph-name="Adieresis" unicode="&#xc4;" horiz-adv-x="710" 
d="M0 0zM185 0h-195l265 700h200l265 -700h-195l-45 125h-250zM275 255h160l-80 235zM385 871h170v-140h-170v140zM155 871h170v-140h-170v140z" />
    <glyph glyph-name="Aring" unicode="&#xc5;" horiz-adv-x="710" 
d="M0 0zM185 0h-195l265 700h200l265 -700h-195l-45 125h-250zM275 255h160l-80 235zM385 926q49 0 74.5 -24t25.5 -66v-15q0 -42 -25.5 -66t-74.5 -24h-60q-49 0 -74.5 24t-25.5 66v15q0 42 25.5 66t74.5 24h60zM400 831q0 30 -30 30h-30q-30 0 -30 -30v-5q0 -30 30 -30h30
q30 0 30 30v5z" />
    <glyph glyph-name="AE" unicode="&#xc6;" horiz-adv-x="995" 
d="M-10 0l265 700h720v-140h-335v-135h255v-140h-255v-145h335v-140h-515v125h-230l-45 -125h-195zM275 255h185v305h-80z" />
    <glyph glyph-name="Ccedilla" unicode="&#xc7;" horiz-adv-x="620" 
d="M40 0zM600 10q-223 -20 -370 -20q-98 0 -144 46t-46 144v320q0 105 47.5 152.5t152.5 47.5h360v-140h-320q-60 0 -60 -60v-320q0 -23 13.5 -36.5t34.5 -13.5t46 0.5t52 1.5t54.5 2t71 4t108.5 7v-135zM360 20v-40h10q49 0 74.5 -24t25.5 -66t-25.5 -66t-74.5 -24h-120v65
h100q35 0 35 25t-35 25h-75v105h85z" />
    <glyph glyph-name="Egrave" unicode="&#xc8;" horiz-adv-x="635" 
d="M60 0zM615 0h-555v700h555v-140h-375v-135h295v-140h-295v-145h375v-140zM302 731l-110 170h170l60 -170h-120z" />
    <glyph glyph-name="Eacute" unicode="&#xc9;" horiz-adv-x="635" 
d="M60 0zM615 0h-555v700h555v-140h-375v-135h295v-140h-295v-145h375v-140zM267 731l60 170h180l-110 -170h-130z" />
    <glyph glyph-name="Ecircumflex" unicode="&#xca;" horiz-adv-x="635" 
d="M60 0zM615 0h-555v700h555v-140h-375v-135h295v-140h-295v-145h375v-140zM147 731l120 170h140l120 -170h-125l-65 80l-65 -80h-125z" />
    <glyph glyph-name="Edieresis" unicode="&#xcb;" horiz-adv-x="635" 
d="M60 0zM615 0h-555v700h555v-140h-375v-135h295v-140h-295v-145h375v-140zM367 901h170v-140h-170v140zM137 901h170v-140h-170v140z" />
    <glyph glyph-name="Igrave" unicode="&#xcc;" horiz-adv-x="420" 
d="M30 0zM390 0h-360v140h90v420h-90v140h360v-140h-90v-420h90v-140zM165 730l-110 170h170l60 -170h-120z" />
    <glyph glyph-name="Iacute" unicode="&#xcd;" horiz-adv-x="420" 
d="M30 0zM390 0h-360v140h90v420h-90v140h360v-140h-90v-420h90v-140zM140 731l60 170h180l-110 -170h-130z" />
    <glyph glyph-name="Icircumflex" unicode="&#xce;" horiz-adv-x="420" 
d="M20 0zM390 0h-360v140h90v420h-90v140h360v-140h-90v-420h90v-140zM20 730l120 170h140l120 -170h-125l-65 80l-65 -80h-125z" />
    <glyph glyph-name="Idieresis" unicode="&#xcf;" horiz-adv-x="420" 
d="M10 0zM390 0h-360v140h90v420h-90v140h360v-140h-90v-420h90v-140zM240 901h170v-140h-170v140zM10 901h170v-140h-170v140z" />
    <glyph glyph-name="Eth" unicode="&#xd0;" horiz-adv-x="740" 
d="M80 420v280h390q113 0 171.5 -58.5t58.5 -171.5v-240q0 -113 -58.5 -171.5t-171.5 -58.5h-390v285h-60v135h60zM520 470q0 90 -90 90h-170v-140h120v-135h-120v-145h170q90 0 90 90v240z" />
    <glyph glyph-name="Ntilde" unicode="&#xd1;" horiz-adv-x="730" 
d="M60 0zM670 0h-190l-240 420v-420h-180v700h190l240 -420v420h180v-700zM425 851q32 0 50 40l65 -40q-9 -32 -24 -56q-35 -59 -91 -59q-21 0 -36.5 8t-29 17t-26.5 17t-28 8q-32 0 -50 -40l-65 40q16 62 59 97q22 18 49.5 18t43 -8t29 -17t26.5 -17t28 -8z" />
    <glyph glyph-name="Ograve" unicode="&#xd2;" horiz-adv-x="730" 
d="M40 0zM510 510q0 60 -60 60h-170q-60 0 -60 -60v-320q0 -60 60 -60h170q60 0 60 60v320zM690 190q0 -105 -47.5 -152.5t-152.5 -47.5h-250q-105 0 -152.5 47.5t-47.5 152.5v320q0 105 47.5 152.5t152.5 47.5h250q105 0 152.5 -47.5t47.5 -152.5v-320zM320 740l-110 170
h170l60 -170h-120z" />
    <glyph glyph-name="Oacute" unicode="&#xd3;" horiz-adv-x="730" 
d="M40 0zM510 510q0 60 -60 60h-170q-60 0 -60 -60v-320q0 -60 60 -60h170q60 0 60 60v320zM690 190q0 -105 -47.5 -152.5t-152.5 -47.5h-250q-105 0 -152.5 47.5t-47.5 152.5v320q0 105 47.5 152.5t152.5 47.5h250q105 0 152.5 -47.5t47.5 -152.5v-320zM295 741l60 170h180
l-110 -170h-130z" />
    <glyph glyph-name="Ocircumflex" unicode="&#xd4;" horiz-adv-x="730" 
d="M40 0zM510 510q0 60 -60 60h-170q-60 0 -60 -60v-320q0 -60 60 -60h170q60 0 60 60v320zM690 190q0 -105 -47.5 -152.5t-152.5 -47.5h-250q-105 0 -152.5 47.5t-47.5 152.5v320q0 105 47.5 152.5t152.5 47.5h250q105 0 152.5 -47.5t47.5 -152.5v-320zM175 741l120 170
h140l120 -170h-125l-65 80l-65 -80h-125z" />
    <glyph glyph-name="Otilde" unicode="&#xd5;" horiz-adv-x="730" 
d="M40 0zM510 510q0 60 -60 60h-170q-60 0 -60 -60v-320q0 -60 60 -60h170q60 0 60 60v320zM690 190q0 -105 -47.5 -152.5t-152.5 -47.5h-250q-105 0 -152.5 47.5t-47.5 152.5v320q0 105 47.5 152.5t152.5 47.5h250q105 0 152.5 -47.5t47.5 -152.5v-320zM425 861q32 0 50 40
l65 -40q-9 -32 -24 -56q-35 -59 -91 -59q-21 0 -36.5 8t-29 17t-26.5 17t-28 8q-32 0 -50 -40l-65 40q16 62 59 97q22 18 49.5 18t43 -8t29 -17t26.5 -17t28 -8z" />
    <glyph glyph-name="Odieresis" unicode="&#xd6;" horiz-adv-x="730" 
d="M40 0zM510 510q0 60 -60 60h-170q-60 0 -60 -60v-320q0 -60 60 -60h170q60 0 60 60v320zM690 190q0 -105 -47.5 -152.5t-152.5 -47.5h-250q-105 0 -152.5 47.5t-47.5 152.5v320q0 105 47.5 152.5t152.5 47.5h250q105 0 152.5 -47.5t47.5 -152.5v-320zM395 901h170v-140
h-170v140zM165 901h170v-140h-170v140z" />
    <glyph glyph-name="multiply" unicode="&#xd7;" horiz-adv-x="540" 
d="M270 450l130 130l100 -100l-130 -130l130 -130l-100 -100l-130 130l-130 -130l-100 100l130 130l-130 130l100 100z" />
    <glyph glyph-name="Oslash" unicode="&#xd8;" horiz-adv-x="730" 
d="M25 50l31 34q-16 41 -16 106v320q0 105 47.5 152.5t152.5 47.5h250q72 0 119 -24l26 29l70 -65l-32 -35q17 -40 17 -105v-320q0 -105 -47.5 -152.5t-152.5 -47.5h-250q-73 0 -119 23l-26 -28zM220 262l271 296q-15 12 -41 12h-170q-60 0 -60 -60v-248zM510 437l-272 -296
q14 -11 42 -11h170q60 0 60 60v247z" />
    <glyph glyph-name="Ugrave" unicode="&#xd9;" horiz-adv-x="750" 
d="M60 0zM510 700h180v-510q0 -105 -47.5 -152.5t-152.5 -47.5h-230q-105 0 -152.5 47.5t-47.5 152.5v510h180v-510q0 -60 60 -60h150q60 0 60 60v510zM330 721l-110 170h170l60 -170h-120z" />
    <glyph glyph-name="Uacute" unicode="&#xda;" horiz-adv-x="750" 
d="M60 0zM510 700h180v-510q0 -105 -47.5 -152.5t-152.5 -47.5h-230q-105 0 -152.5 47.5t-47.5 152.5v510h180v-510q0 -60 60 -60h150q60 0 60 60v510zM305 721l60 170h180l-110 -170h-130z" />
    <glyph glyph-name="Ucircumflex" unicode="&#xdb;" horiz-adv-x="750" 
d="M60 0zM510 700h180v-510q0 -105 -47.5 -152.5t-152.5 -47.5h-230q-105 0 -152.5 47.5t-47.5 152.5v510h180v-510q0 -60 60 -60h150q60 0 60 60v510zM185 731l120 170h140l120 -170h-125l-65 80l-65 -80h-125z" />
    <glyph glyph-name="Udieresis" unicode="&#xdc;" horiz-adv-x="750" 
d="M60 0zM510 700h180v-510q0 -105 -47.5 -152.5t-152.5 -47.5h-230q-105 0 -152.5 47.5t-47.5 152.5v510h180v-510q0 -60 60 -60h150q60 0 60 60v510zM405 891h170v-140h-170v140zM175 891h170v-140h-170v140z" />
    <glyph glyph-name="Yacute" unicode="&#xdd;" horiz-adv-x="670" 
d="M0 0zM-20 700h190l165 -340l165 340h190l-265 -515v-185h-180v185zM255 721l60 170h180l-110 -170h-130z" />
    <glyph glyph-name="Thorn" unicode="&#xde;" horiz-adv-x="730" 
d="M700 270q0 -105 -47.5 -152.5t-152.5 -47.5h-260v-80h-180v720h180v-80h260q105 0 152.5 -47.5t47.5 -152.5v-160zM520 430q0 60 -60 60h-220v-280h220q60 0 60 60v160z" />
    <glyph glyph-name="germandbls" unicode="&#xdf;" horiz-adv-x="620" 
d="M559 31q-41 -41 -106.5 -41t-132.5 10v125h70q15 0 25 10t10 25v90q0 40 -40 40h-90v135h10q40 0 40 40v70q0 40 -40 40h-40q-40 0 -40 -40v-535h-175v550q0 75 42.5 117.5t117.5 42.5h150q75 0 117.5 -42.5t42.5 -117.5v-90q0 -55 -30 -85q49 -11 79.5 -44.5t30.5 -90.5
v-100q0 -68 -41 -109z" />
    <glyph glyph-name="agrave" unicode="&#xe0;" horiz-adv-x="595" 
d="M25 0zM260 130q53 0 120 20v60h-145q-15 0 -25 -10t-10 -25v-10q0 -15 10 -25t25 -10h25zM75 520q183 20 330 20q68 0 109 -41t41 -109v-390h-155l-10 50q-47 -31 -96.5 -45.5t-83.5 -14.5h-35q-68 0 -109 41t-41 109v45q0 68 41 109t109 41h205v40q0 15 -10 25t-25 10
q-65 0 -143.5 -6t-126.5 -9v125zM262 570l-110 170h170l60 -170h-120z" />
    <glyph glyph-name="aacute" unicode="&#xe1;" horiz-adv-x="595" 
d="M25 0zM260 130q53 0 120 20v60h-145q-15 0 -25 -10t-10 -25v-10q0 -15 10 -25t25 -10h25zM75 520q183 20 330 20q68 0 109 -41t41 -109v-390h-155l-10 50q-47 -31 -96.5 -45.5t-83.5 -14.5h-35q-68 0 -109 41t-41 109v45q0 68 41 109t109 41h205v40q0 15 -10 25t-25 10
q-65 0 -143.5 -6t-126.5 -9v125zM219 571l60 170h180l-110 -170h-130z" />
    <glyph glyph-name="acircumflex" unicode="&#xe2;" horiz-adv-x="595" 
d="M25 0zM260 130q53 0 120 20v60h-145q-15 0 -25 -10t-10 -25v-10q0 -15 10 -25t25 -10h25zM75 520q183 20 330 20q68 0 109 -41t41 -109v-390h-155l-10 50q-47 -31 -96.5 -45.5t-83.5 -14.5h-35q-68 0 -109 41t-41 109v45q0 68 41 109t109 41h205v40q0 15 -10 25t-25 10
q-65 0 -143.5 -6t-126.5 -9v125zM130 571l120 170h140l120 -170h-125l-65 80l-65 -80h-125z" />
    <glyph glyph-name="atilde" unicode="&#xe3;" horiz-adv-x="595" 
d="M25 0zM260 130q53 0 120 20v60h-145q-15 0 -25 -10t-10 -25v-10q0 -15 10 -25t25 -10h25zM75 520q183 20 330 20q68 0 109 -41t41 -109v-390h-155l-10 50q-47 -31 -96.5 -45.5t-83.5 -14.5h-35q-68 0 -109 41t-41 109v45q0 68 41 109t109 41h205v40q0 15 -10 25t-25 10
q-65 0 -143.5 -6t-126.5 -9v125zM377 686q32 0 50 40l65 -40q-9 -32 -24 -56q-35 -59 -91 -59q-21 0 -36.5 8t-29 17t-26.5 17t-28 8q-32 0 -50 -40l-65 40q16 62 59 97q22 18 49.5 18t43 -8t29 -17t26.5 -17t28 -8z" />
    <glyph glyph-name="adieresis" unicode="&#xe4;" horiz-adv-x="595" 
d="M25 0zM260 130q53 0 120 20v60h-145q-15 0 -25 -10t-10 -25v-10q0 -15 10 -25t25 -10h25zM75 520q183 20 330 20q68 0 109 -41t41 -109v-390h-155l-10 50q-47 -31 -96.5 -45.5t-83.5 -14.5h-35q-68 0 -109 41t-41 109v45q0 68 41 109t109 41h205v40q0 15 -10 25t-25 10
q-65 0 -143.5 -6t-126.5 -9v125zM350 731h170v-140h-170v140zM120 731h170v-140h-170v140z" />
    <glyph glyph-name="aring" unicode="&#xe5;" horiz-adv-x="595" 
d="M25 0zM260 130q53 0 120 20v60h-145q-15 0 -25 -10t-10 -25v-10q0 -15 10 -25t25 -10h25zM75 520q183 20 330 20q68 0 109 -41t41 -109v-390h-155l-10 50q-47 -31 -96.5 -45.5t-83.5 -14.5h-35q-68 0 -109 41t-41 109v45q0 68 41 109t109 41h205v40q0 15 -10 25t-25 10
q-65 0 -143.5 -6t-126.5 -9v125zM337 765q49 0 74.5 -24t25.5 -66v-15q0 -42 -25.5 -66t-74.5 -24h-60q-49 0 -74.5 24t-25.5 66v15q0 42 25.5 66t74.5 24h60zM352 670q0 30 -30 30h-30q-30 0 -30 -30v-5q0 -30 30 -30h30q30 0 30 30v5z" />
    <glyph glyph-name="ae" unicode="&#xe6;" horiz-adv-x="920" 
d="M75 520q153 20 285 20q62 0 105 -35q39 35 105 35h150q75 0 117.5 -42.5t42.5 -117.5v-175h-335v-55q0 -11 10 -20.5t25 -9.5q100 0 280 15v-125q-187 -20 -340 -20q-69 0 -106 32q-17 14 -24 33q-50 -35 -101 -50t-89 -15h-25q-68 0 -109 41t-41 109v45q0 68 41 109
t109 41h195v44q-2 14 -11.5 22.5t-36.5 8.5q-52 0 -156 -8l-91 -7v125zM585 415q-40 0 -40 -40v-45h160v45q0 40 -40 40h-80zM250 130q53 0 120 20v60h-135q-15 0 -25 -10t-10 -25v-10q0 -15 10 -25t25 -10h15z" />
    <glyph glyph-name="ccedilla" unicode="&#xe7;" horiz-adv-x="550" 
d="M40 0zM520 10q-187 -20 -330 -20q-68 0 -109 41t-41 109v230q0 75 42.5 117.5t117.5 42.5h320v-135h-265q-40 0 -40 -40v-195q0 -15 10 -25t25 -10q90 0 270 15v-130zM315 20v-40h10q49 0 74.5 -24t25.5 -66t-25.5 -66t-74.5 -24h-120v65h100q35 0 35 25t-35 25h-75v105
h85z" />
    <glyph glyph-name="egrave" unicode="&#xe8;" horiz-adv-x="600" 
d="M40 0zM255 415q-40 0 -40 -40v-55h170v55q0 40 -40 40h-90zM540 10q-193 -20 -350 -20q-68 0 -109 41t-41 109v240q0 75 42.5 117.5t117.5 42.5h200q75 0 117.5 -42.5t42.5 -117.5v-185h-345v-40q0 -15 10 -25t25 -10q99 0 290 15v-125zM255 570l-110 170h170l60 -170
h-120z" />
    <glyph glyph-name="eacute" unicode="&#xe9;" horiz-adv-x="600" 
d="M40 0zM255 415q-40 0 -40 -40v-55h170v55q0 40 -40 40h-90zM540 10q-193 -20 -350 -20q-68 0 -109 41t-41 109v240q0 75 42.5 117.5t117.5 42.5h200q75 0 117.5 -42.5t42.5 -117.5v-185h-345v-40q0 -15 10 -25t25 -10q99 0 290 15v-125zM220 571l60 170h180l-110 -170
h-130z" />
    <glyph glyph-name="ecircumflex" unicode="&#xea;" horiz-adv-x="600" 
d="M40 0zM255 415q-40 0 -40 -40v-55h170v55q0 40 -40 40h-90zM540 10q-193 -20 -350 -20q-68 0 -109 41t-41 109v240q0 75 42.5 117.5t117.5 42.5h200q75 0 117.5 -42.5t42.5 -117.5v-185h-345v-40q0 -15 10 -25t25 -10q99 0 290 15v-125zM110 571l120 170h140l120 -170
h-125l-65 80l-65 -80h-125z" />
    <glyph glyph-name="edieresis" unicode="&#xeb;" horiz-adv-x="600" 
d="M40 0zM255 415q-40 0 -40 -40v-55h170v55q0 40 -40 40h-90zM540 10q-193 -20 -350 -20q-68 0 -109 41t-41 109v240q0 75 42.5 117.5t117.5 42.5h200q75 0 117.5 -42.5t42.5 -117.5v-185h-345v-40q0 -15 10 -25t25 -10q99 0 290 15v-125zM330 710h170v-140h-170v140z
M100 710h170v-140h-170v140z" />
    <glyph glyph-name="igrave" unicode="&#xec;" horiz-adv-x="320" 
d="M270 530v-530h-175v395h-75v135h250zM134 570l-110 170h170l60 -170h-120z" />
    <glyph glyph-name="iacute" unicode="&#xed;" horiz-adv-x="320" 
d="M270 530v-530h-175v395h-75v135h250zM100 571l60 170h180l-110 -170h-130z" />
    <glyph glyph-name="icircumflex" unicode="&#xee;" horiz-adv-x="320" 
d="M270 530v-530h-175v395h-75v135h250zM-25 569l120 170h140l120 -170h-125l-65 80l-65 -80h-125z" />
    <glyph glyph-name="idieresis" unicode="&#xef;" horiz-adv-x="320" 
d="M270 530v-530h-175v395h-75v135h250zM190 710h170v-140h-170v140zM-40 710h170v-140h-170v140z" />
    <glyph glyph-name="eth" unicode="&#xf0;" horiz-adv-x="610" 
d="M235 440q73 0 170 -20v65q0 26 -17.5 42t-47.5 19l-40 4l-5 -55l-115 10l5 57l-80 8l15 140l79 -7l6 62l115 -10l-6 -63l66 -7q91 -10 145 -65q55 -57 55 -135v-335q0 -75 -42.5 -117.5t-117.5 -42.5h-220q-75 0 -117.5 42.5t-42.5 117.5v140q0 68 41 109t109 41h45z
M365 125q40 0 40 40v130q-19 2 -37 5q-41 5 -83 5h-35q-15 0 -25 -10t-10 -25v-105q0 -40 40 -40h110z" />
    <glyph glyph-name="ntilde" unicode="&#xf1;" 
d="M50 0zM345 395q-53 0 -120 -20v-375h-175v530h155l10 -50q47 31 96.5 45.5t83.5 14.5h45q68 0 109 -41t41 -109v-390h-175v360q0 15 -10 25t-25 10h-35zM375 696q32 0 50 40l65 -40q-9 -32 -24 -56q-35 -59 -91 -59q-21 0 -36.5 8t-29 17t-26.5 17t-28 8q-32 0 -50 -40
l-65 40q16 62 59 97q22 18 49.5 18t43 -8t29 -17t26.5 -17t28 -8z" />
    <glyph glyph-name="ograve" unicode="&#xf2;" 
d="M40 0zM590 150q0 -75 -42.5 -117.5t-117.5 -42.5h-230q-75 0 -117.5 42.5t-42.5 117.5v230q0 75 42.5 117.5t117.5 42.5h230q75 0 117.5 -42.5t42.5 -117.5v-230zM415 365q0 40 -40 40h-120q-40 0 -40 -40v-200q0 -40 40 -40h120q40 0 40 40v200zM260 570l-110 170h170
l60 -170h-120z" />
    <glyph glyph-name="oacute" unicode="&#xf3;" 
d="M40 0zM590 150q0 -75 -42.5 -117.5t-117.5 -42.5h-230q-75 0 -117.5 42.5t-42.5 117.5v230q0 75 42.5 117.5t117.5 42.5h230q75 0 117.5 -42.5t42.5 -117.5v-230zM415 365q0 40 -40 40h-120q-40 0 -40 -40v-200q0 -40 40 -40h120q40 0 40 40v200zM245 570l60 170h180
l-110 -170h-130z" />
    <glyph glyph-name="ocircumflex" unicode="&#xf4;" 
d="M40 0zM590 150q0 -75 -42.5 -117.5t-117.5 -42.5h-230q-75 0 -117.5 42.5t-42.5 117.5v230q0 75 42.5 117.5t117.5 42.5h230q75 0 117.5 -42.5t42.5 -117.5v-230zM415 365q0 40 -40 40h-120q-40 0 -40 -40v-200q0 -40 40 -40h120q40 0 40 40v200zM125 571l120 170h140
l120 -170h-125l-65 80l-65 -80h-125z" />
    <glyph glyph-name="otilde" unicode="&#xf5;" 
d="M40 0zM590 150q0 -75 -42.5 -117.5t-117.5 -42.5h-230q-75 0 -117.5 42.5t-42.5 117.5v230q0 75 42.5 117.5t117.5 42.5h230q75 0 117.5 -42.5t42.5 -117.5v-230zM415 365q0 40 -40 40h-120q-40 0 -40 -40v-200q0 -40 40 -40h120q40 0 40 40v200zM375 686q32 0 50 40
l65 -40q-9 -32 -24 -56q-35 -59 -91 -59q-21 0 -36.5 8t-29 17t-26.5 17t-28 8q-32 0 -50 -40l-65 40q16 62 59 97q22 18 49.5 18t43 -8t29 -17t26.5 -17t28 -8z" />
    <glyph glyph-name="odieresis" unicode="&#xf6;" 
d="M40 0zM590 150q0 -75 -42.5 -117.5t-117.5 -42.5h-230q-75 0 -117.5 42.5t-42.5 117.5v230q0 75 42.5 117.5t117.5 42.5h230q75 0 117.5 -42.5t42.5 -117.5v-230zM415 365q0 40 -40 40h-120q-40 0 -40 -40v-200q0 -40 40 -40h120q40 0 40 40v200zM345 730h170v-140h-170
v140zM115 730h170v-140h-170v140z" />
    <glyph glyph-name="divide" unicode="&#xf7;" horiz-adv-x="540" 
d="M510 420v-140h-480v140h480zM190 230h160v-140h-160v140zM190 610h160v-140h-160v140z" />
    <glyph glyph-name="oslash" unicode="&#xf8;" 
d="M580 443q10 -28 10 -63v-230q0 -75 -42.5 -117.5t-117.5 -42.5h-230q-56 0 -94 23l-31 -28l-60 70l35 31q-10 27 -10 64v230q0 75 42.5 117.5t117.5 42.5h230q55 0 93 -24l32 29l60 -70zM415 293l-180 -163q10 -5 20 -5h120q40 0 40 40v128zM215 236l180 164q-10 5 -20 5
h-120q-40 0 -40 -40v-129z" />
    <glyph glyph-name="ugrave" unicode="&#xf9;" horiz-adv-x="640" 
d="M50 0zM295 135q53 0 120 20v375h175v-530h-155l-10 50q-47 -31 -96.5 -45.5t-83.5 -14.5h-45q-68 0 -109 41t-41 109v390h175v-360q0 -15 10 -25t25 -10h35zM275 560l-110 170h170l60 -170h-120z" />
    <glyph glyph-name="uacute" unicode="&#xfa;" horiz-adv-x="640" 
d="M50 0zM295 135q53 0 120 20v375h175v-530h-155l-10 50q-47 -31 -96.5 -45.5t-83.5 -14.5h-45q-68 0 -109 41t-41 109v390h175v-360q0 -15 10 -25t25 -10h35zM240 560l60 170h180l-110 -170h-130z" />
    <glyph glyph-name="ucircumflex" unicode="&#xfb;" horiz-adv-x="640" 
d="M50 0zM295 135q53 0 120 20v375h175v-530h-155l-10 50q-47 -31 -96.5 -45.5t-83.5 -14.5h-45q-68 0 -109 41t-41 109v390h175v-360q0 -15 10 -25t25 -10h35zM130 570l120 170h140l120 -170h-125l-65 80l-65 -80h-125z" />
    <glyph glyph-name="udieresis" unicode="&#xfc;" horiz-adv-x="640" 
d="M50 0zM295 135q53 0 120 20v375h175v-530h-155l-10 50q-47 -31 -96.5 -45.5t-83.5 -14.5h-45q-68 0 -109 41t-41 109v390h175v-360q0 -15 10 -25t25 -10h35zM350 710h170v-140h-170v140zM120 710h170v-140h-170v140z" />
    <glyph glyph-name="yacute" unicode="&#xfd;" horiz-adv-x="570" 
d="M0 0zM190 -180q-53 0 -130 10v130h90q38 0 49.5 21t-4.5 59l-205 490h185l125 -340l105 340h185l-200 -550q-29 -79 -75 -119.5t-125 -40.5zM215 560l60 170h180l-110 -170h-130z" />
    <glyph glyph-name="thorn" unicode="&#xfe;" 
d="M430 530q75 0 117.5 -42.5t42.5 -117.5v-210q0 -75 -42.5 -117.5t-117.5 -42.5h-205v-170h-175v870h175v-170h205zM415 355q0 40 -40 40h-150v-260h150q40 0 40 40v180z" />
    <glyph glyph-name="ydieresis" unicode="&#xff;" horiz-adv-x="570" 
d="M0 0zM190 -180q-53 0 -130 10v130h90q38 0 49.5 21t-4.5 59l-205 490h185l125 -340l105 340h185l-200 -550q-29 -79 -75 -119.5t-125 -40.5zM315 730h170v-140h-170v140zM85 730h170v-140h-170v140z" />
    <glyph glyph-name="Amacron" unicode="&#x100;" horiz-adv-x="710" 
d="M0 0zM185 0h-195l265 700h200l265 -700h-195l-45 125h-250zM275 255h160l-80 235zM205 881h300v-120h-300v120z" />
    <glyph glyph-name="amacron" unicode="&#x101;" horiz-adv-x="595" 
d="M25 0zM260 130q53 0 120 20v60h-145q-15 0 -25 -10t-10 -25v-10q0 -15 10 -25t25 -10h25zM75 520q183 20 330 20q68 0 109 -41t41 -109v-390h-155l-10 50q-47 -31 -96.5 -45.5t-83.5 -14.5h-35q-68 0 -109 41t-41 109v45q0 68 41 109t109 41h205v40q0 15 -10 25t-25 10
q-65 0 -143.5 -6t-126.5 -9v125zM167 711h300v-120h-300v120z" />
    <glyph glyph-name="Abreve" unicode="&#x102;" horiz-adv-x="710" 
d="M0 0zM185 0h-195l265 700h200l265 -700h-195l-45 125h-250zM275 255h160l-80 235zM305 751q-130 0 -130 130v30h130v-25q0 -15 10 -25t25 -10h30q15 0 25 10t10 25v25h130v-30q0 -130 -130 -130h-100z" />
    <glyph glyph-name="abreve" unicode="&#x103;" horiz-adv-x="595" 
d="M260 580q-130 0 -130 130v30h130v-25q0 -15 10 -25t25 -10h30q15 0 25 10t10 25v25h130v-30q0 -130 -130 -130h-100zM260 130q53 0 120 20v60h-145q-15 0 -25 -10t-10 -25v-10q0 -15 10 -25t25 -10h25zM75 520q183 20 330 20q68 0 109 -41t41 -109v-390h-155l-10 50
q-47 -31 -96.5 -45.5t-83.5 -14.5h-35q-68 0 -109 41t-41 109v45q0 68 41 109t109 41h205v40q0 15 -10 25t-25 10q-65 0 -143.5 -6t-126.5 -9v125z" />
    <glyph glyph-name="Aogonek" unicode="&#x104;" horiz-adv-x="710" 
d="M0 0zM185 0h-195l265 700h200l265 -700h-195l-45 125h-250zM275 255h160l-80 235zM710 -190q-47 -10 -100 -10t-79 23.5t-26 58.5q0 56 57 92q26 16 58 26h100q-65 -25 -101 -60q-19 -17 -19 -41t33.5 -24t76.5 10v-75z" />
    <glyph glyph-name="aogonek" unicode="&#x105;" horiz-adv-x="595" 
d="M25 0zM260 130q53 0 120 20v60h-145q-15 0 -25 -10t-10 -25v-10q0 -15 10 -25t25 -10h25zM75 520q183 20 330 20q68 0 109 -41t41 -109v-390h-155l-10 50q-47 -31 -96.5 -45.5t-83.5 -14.5h-35q-68 0 -109 41t-41 109v45q0 68 41 109t109 41h205v40q0 15 -10 25t-25 10
q-65 0 -143.5 -6t-126.5 -9v125zM545 -190q-47 -10 -100 -10t-79 23.5t-26 58.5q0 56 57 92q26 16 58 26h100q-65 -25 -101 -60q-19 -17 -19 -41t33.5 -24t76.5 10v-75z" />
    <glyph glyph-name="Cacute" unicode="&#x106;" horiz-adv-x="620" 
d="M40 0zM600 10q-223 -20 -370 -20q-98 0 -144 46t-46 144v320q0 105 47.5 152.5t152.5 47.5h360v-140h-320q-60 0 -60 -60v-320q0 -23 13.5 -36.5t34.5 -13.5t46 0.5t52 1.5t54.5 2t71 4t108.5 7v-135zM250 731l60 170h180l-110 -170h-130z" />
    <glyph glyph-name="cacute" unicode="&#x107;" horiz-adv-x="550" 
d="M40 0zM520 10q-187 -20 -330 -20q-68 0 -109 41t-41 109v230q0 75 42.5 117.5t117.5 42.5h320v-135h-265q-40 0 -40 -40v-195q0 -15 10 -25t25 -10q90 0 270 15v-130zM215 570l60 170h180l-110 -170h-130z" />
    <glyph glyph-name="Ccaron" unicode="&#x10c;" horiz-adv-x="620" 
d="M40 0zM600 10q-223 -20 -370 -20q-98 0 -144 46t-46 144v320q0 105 47.5 152.5t152.5 47.5h360v-140h-320q-60 0 -60 -60v-320q0 -23 13.5 -36.5t34.5 -13.5t46 0.5t52 1.5t54.5 2t71 4t108.5 7v-135zM275 901l65 -80l65 80h125l-120 -170h-140l-120 170h125z" />
    <glyph glyph-name="ccaron" unicode="&#x10d;" horiz-adv-x="550" 
d="M40 0zM520 10q-187 -20 -330 -20q-68 0 -109 41t-41 109v230q0 75 42.5 117.5t117.5 42.5h320v-135h-265q-40 0 -40 -40v-195q0 -15 10 -25t25 -10q90 0 270 15v-130zM230 740l65 -80l65 80h125l-120 -170h-140l-120 170h125z" />
    <glyph glyph-name="Dcaron" unicode="&#x10e;" horiz-adv-x="720" 
d="M60 0zM450 700q113 0 171.5 -58.5t58.5 -171.5v-240q0 -113 -58.5 -171.5t-171.5 -58.5h-390v700h390zM500 470q0 90 -90 90h-170v-420h170q90 0 90 90v240zM275 901l65 -80l65 80h125l-120 -170h-140l-120 170h125z" />
    <glyph glyph-name="dcaron" unicode="&#x10f;" horiz-adv-x="820" 
d="M630 700h170v-130l-70 -110h-80l40 100h-60v140zM425 0l-10 50q-47 -31 -96.5 -45.5t-83.5 -14.5h-45q-68 0 -109 41t-41 109v230q0 75 42.5 117.5t117.5 42.5h205v170h175v-700h-155zM285 135q53 0 120 20v240h-150q-40 0 -40 -40v-185q0 -15 10 -25t25 -10h35z" />
    <glyph glyph-name="Dcroat" unicode="&#x110;" horiz-adv-x="740" 
d="M80 420v280h390q113 0 171.5 -58.5t58.5 -171.5v-240q0 -113 -58.5 -171.5t-171.5 -58.5h-390v285h-60v135h60zM520 470q0 90 -90 90h-170v-140h120v-135h-120v-145h170q90 0 90 90v240z" />
    <glyph glyph-name="dcroat" unicode="&#x111;" horiz-adv-x="660" 
d="M425 0l-10 50q-47 -31 -96.5 -45.5t-83.5 -14.5h-45q-68 0 -109 41t-41 109v150q0 75 42.5 117.5t117.5 42.5h205v45h-125v125h125v80h155l20 -80h60v-125h-60v-495h-155zM285 135q53 0 120 20v160h-150q-40 0 -40 -40v-105q0 -15 10 -25t25 -10h35z" />
    <glyph glyph-name="Emacron" unicode="&#x112;" horiz-adv-x="635" 
d="M60 0zM615 0h-555v700h555v-140h-375v-135h295v-140h-295v-145h375v-140zM167 881h300v-120h-300v120z" />
    <glyph glyph-name="emacron" unicode="&#x113;" horiz-adv-x="600" 
d="M40 0zM255 415q-40 0 -40 -40v-55h170v55q0 40 -40 40h-90zM540 10q-193 -20 -350 -20q-68 0 -109 41t-41 109v240q0 75 42.5 117.5t117.5 42.5h200q75 0 117.5 -42.5t42.5 -117.5v-185h-345v-40q0 -15 10 -25t25 -10q99 0 290 15v-125zM150 711h300v-120h-300v120z" />
    <glyph glyph-name="Edotaccent" unicode="&#x116;" horiz-adv-x="635" 
d="M60 0zM615 0h-555v700h555v-140h-375v-135h295v-140h-295v-145h375v-140zM232 901h170v-140h-170v140z" />
    <glyph glyph-name="edotaccent" unicode="&#x117;" horiz-adv-x="600" 
d="M40 0zM255 415q-40 0 -40 -40v-55h170v55q0 40 -40 40h-90zM540 10q-193 -20 -350 -20q-68 0 -109 41t-41 109v240q0 75 42.5 117.5t117.5 42.5h200q75 0 117.5 -42.5t42.5 -117.5v-185h-345v-40q0 -15 10 -25t25 -10q99 0 290 15v-125zM215 730h170v-140h-170v140z" />
    <glyph glyph-name="Eogonek" unicode="&#x118;" horiz-adv-x="635" 
d="M60 0zM615 0h-555v700h555v-140h-375v-135h295v-140h-295v-145h375v-140zM605 -190q-47 -10 -100 -10t-79 23.5t-26 58.5q0 56 57 92q26 16 58 26h100q-65 -25 -101 -60q-19 -17 -19 -41t33.5 -24t76.5 10v-75z" />
    <glyph glyph-name="eogonek" unicode="&#x119;" horiz-adv-x="600" 
d="M530 -190q-47 -10 -100 -10t-79 23.5t-26 57.5t16 55.5t37 35.5q32 21 60 28q-3 0 -29 -1.5t-63 -3.5q-91 -5 -157.5 -5t-107.5 41t-41 109v240q0 75 42.5 117.5t117.5 42.5h200q75 0 117.5 -42.5t42.5 -117.5v-185h-345v-40q0 -15 10 -25t25 -10q99 0 290 15v-125
q-120 -64 -120 -110q0 -25 33.5 -25t76.5 10v-75zM255 415q-40 0 -40 -40v-55h170v55q0 40 -40 40h-90z" />
    <glyph glyph-name="Ecaron" unicode="&#x11a;" horiz-adv-x="635" 
d="M60 0zM615 0h-555v700h555v-140h-375v-135h295v-140h-295v-145h375v-140zM282 901l65 -80l65 80h125l-120 -170h-140l-120 170h125z" />
    <glyph glyph-name="ecaron" unicode="&#x11b;" horiz-adv-x="600" 
d="M40 0zM255 415q-40 0 -40 -40v-55h170v55q0 40 -40 40h-90zM540 10q-193 -20 -350 -20q-68 0 -109 41t-41 109v240q0 75 42.5 117.5t117.5 42.5h200q75 0 117.5 -42.5t42.5 -117.5v-185h-345v-40q0 -15 10 -25t25 -10q99 0 290 15v-125zM235 740l65 -80l65 80h125
l-120 -170h-140l-120 170h125z" />
    <glyph glyph-name="Gbreve" unicode="&#x11e;" horiz-adv-x="700" 
d="M40 0zM660 15q-234 -25 -430 -25q-98 0 -144 46t-46 144v320q0 105 47.5 152.5t152.5 47.5h360v-140h-320q-60 0 -60 -60v-320q0 -23 13.5 -36.5t36.5 -13.5q115 0 210 5v145h-130v120h310v-385zM300 740q-130 0 -130 130v30h130v-25q0 -15 10 -25t25 -10h30q15 0 25 10
t10 25v25h130v-30q0 -130 -130 -130h-100z" />
    <glyph glyph-name="gbreve" unicode="&#x11f;" horiz-adv-x="620" 
d="M270 570q-130 0 -130 130v30h130v-25q0 -15 10 -25t25 -10h30q15 0 25 10t10 25v25h130v-30q0 -130 -130 -130h-100zM395 40q-97 -20 -170 -20h-35q-68 0 -109 41t-41 109v200q0 75 42.5 117.5t117.5 42.5h370v-560q0 -68 -41 -109t-109 -41q-157 0 -350 20v130
q191 -15 290 -15q15 0 25 10t10 25v50zM275 155q63 0 120 10v230h-140q-40 0 -40 -40v-165q0 -15 10 -25t25 -10h25z" />
    <glyph glyph-name="Gcommaaccent" unicode="&#x122;" horiz-adv-x="700" 
d="M40 0zM660 15q-234 -25 -430 -25q-98 0 -144 46t-46 144v320q0 105 47.5 152.5t152.5 47.5h360v-140h-320q-60 0 -60 -60v-320q0 -23 13.5 -36.5t36.5 -13.5q115 0 210 5v145h-130v120h310v-385zM265 -39h170v-130l-70 -110h-80l40 100h-60v140z" />
    <glyph glyph-name="gcommaaccent" unicode="&#x123;" horiz-adv-x="620" 
d="M400 580h-170v130l70 110h80l-40 -100h60v-140zM395 40q-97 -20 -170 -20h-35q-68 0 -109 41t-41 109v200q0 75 42.5 117.5t117.5 42.5h370v-560q0 -68 -41 -109t-109 -41q-157 0 -350 20v130q191 -15 290 -15q15 0 25 10t10 25v50zM275 155q63 0 120 10v230h-140
q-40 0 -40 -40v-165q0 -15 10 -25t25 -10h25z" />
    <glyph glyph-name="hbar" unicode="&#x127;" horiz-adv-x="660" 
d="M255 430q97 20 170 20h45q68 0 109 -41t41 -109v-300h-175v280q0 15 -10 25t-25 10h-35q-39 0 -70 -4t-50 -6v-305h-175v495h-60v125h60l20 80h155v-80h125v-125h-125v-65z" />
    <glyph glyph-name="Itilde" unicode="&#x128;" horiz-adv-x="420" 
d="M30 0zM390 0h-360v140h90v420h-90v140h360v-140h-90v-420h90v-140zM270 861q32 0 50 40l65 -40q-9 -32 -24 -56q-35 -59 -91 -59q-21 0 -36.5 8t-29 17t-26.5 17t-28 8q-32 0 -50 -40l-65 40q16 62 59 97q22 18 49.5 18t43 -8t29 -17t26.5 -17t28 -8z" />
    <glyph glyph-name="itilde" unicode="&#x129;" horiz-adv-x="320" 
d="M270 530v-530h-175v395h-75v135h250zM220 695q32 0 50 40l65 -40q-9 -32 -23 -56q-36 -59 -92 -59q-21 0 -36.5 8t-29 17t-26.5 17t-28 8q-32 0 -50 -40l-65 40q16 62 59 97q22 18 49.5 18t43 -8t29 -17t26.5 -17t28 -8z" />
    <glyph glyph-name="Imacron" unicode="&#x12a;" horiz-adv-x="420" 
d="M30 0zM390 0h-360v140h90v420h-90v140h360v-140h-90v-420h90v-140zM60 881h300v-120h-300v120z" />
    <glyph glyph-name="imacron" unicode="&#x12b;" horiz-adv-x="320" 
d="M270 510v-510h-175v375h-75v135h250zM10 700h300v-120h-300v120z" />
    <glyph glyph-name="Iogonek" unicode="&#x12e;" horiz-adv-x="420" 
d="M30 0zM390 0h-360v140h90v420h-90v140h360v-140h-90v-420h90v-140zM290 -190q-47 -10 -100 -10t-79 23.5t-26 58.5q0 56 57 92q26 16 58 26h100q-65 -25 -101 -60q-19 -17 -19 -41t33.5 -24t76.5 10v-75z" />
    <glyph glyph-name="iogonek" unicode="&#x12f;" horiz-adv-x="320" 
d="M20 0zM270 510v-510h-175v375h-75v135h250zM95 710h175v-140h-175v140zM257 -190q-47 -10 -100 -10t-79 23.5t-26 58.5q0 56 57 92q26 16 58 26h100q-65 -25 -101 -60q-19 -17 -19 -41t33.5 -24t76.5 10v-75z" />
    <glyph glyph-name="Idotaccent" unicode="&#x130;" horiz-adv-x="420" 
d="M30 0zM390 0h-360v140h90v420h-90v140h360v-140h-90v-420h90v-140zM125 900h170v-140h-170v140z" />
    <glyph glyph-name="dotlessi" unicode="&#x131;" horiz-adv-x="320" 
d="M270 530v-530h-175v395h-75v135h250z" />
    <glyph glyph-name="ij" unicode="&#x133;" horiz-adv-x="610" 
d="M400 -180q-93 0 -190 10v130h130q15 0 25 10t10 25v390h-105v-385h-175v385h-75v135h530v-550q0 -68 -41 -109t-109 -41zM375 710h175v-140h-175v140zM95 710h175v-140h-175v140z" />
    <glyph glyph-name="Jcircumflex" unicode="&#x134;" horiz-adv-x="460" 
d="M10 0zM354 36q-46 -46 -141.5 -46t-202.5 10v135q78 -5 160 -5q23 0 36.5 13.5t13.5 36.5v380h-130v140h310v-520q0 -98 -46 -144zM60 731l120 170h140l120 -170h-125l-65 80l-65 -80h-125z" />
    <glyph glyph-name="jcircumflex" unicode="&#x135;" horiz-adv-x="300" 
d="M100 -180q-93 0 -190 10v130h130q15 0 25 10t10 25v535h175v-560q0 -68 -41 -109t-109 -41zM-30 570l120 170h140l120 -170h-125l-65 80l-65 -80h-125z" />
    <glyph glyph-name="Kcommaaccent" unicode="&#x136;" horiz-adv-x="676" 
d="M60 0zM240 0h-180v700h180v-275h90l156 275h190l-196 -345l195 -355h-190l-155 285h-90v-285zM253 -30h170v-130l-70 -110h-80l40 100h-60v140z" />
    <glyph glyph-name="kcommaaccent" unicode="&#x137;" horiz-adv-x="600" 
d="M50 0zM225 210v-210h-175v700h175v-355h80l110 185h185l-150 -255l150 -275h-185l-115 210h-75zM215 -30h170v-130l-70 -110h-80l40 100h-60v140z" />
    <glyph glyph-name="kgreenlandic" unicode="&#x138;" horiz-adv-x="600" 
d="M300 200h-75v-200h-175v530h175v-195h80l55 110q30 64 94 87q23 8 44 8q34 0 62 -5l25 -5v-135h-35q-34 0 -50 -30l-50 -100l150 -265h-190z" />
    <glyph glyph-name="Lacute" unicode="&#x139;" horiz-adv-x="615" 
d="M60 0zM240 140h365v-140h-545v700h180v-560zM87 731l60 170h180l-110 -170h-130z" />
    <glyph glyph-name="lacute" unicode="&#x13a;" horiz-adv-x="340" 
d="M50 0zM320 0q-67 -10 -127.5 -10t-101.5 41t-41 109v560h175v-535q0 -15 10 -25t25 -10h60v-130zM70 729l60 170h180l-110 -170h-130z" />
    <glyph glyph-name="Lcommaaccent" unicode="&#x13b;" horiz-adv-x="615" 
d="M60 0zM240 140h365v-140h-545v700h180v-560zM222 -30h170v-130l-70 -110h-80l40 100h-60v140z" />
    <glyph glyph-name="lcommaaccent" unicode="&#x13c;" horiz-adv-x="340" 
d="M50 0zM320 0q-67 -10 -127.5 -10t-101.5 41t-41 109v560h175v-535q0 -15 10 -25t25 -10h60v-130zM85 -30h170v-130l-70 -110h-80l40 100h-60v140z" />
    <glyph glyph-name="Lcaron" unicode="&#x13d;" horiz-adv-x="615" 
d="M300 700h170v-130l-70 -110h-80l40 100h-60v140zM240 140h365v-140h-545v700h180v-560z" />
    <glyph glyph-name="lcaron" unicode="&#x13e;" horiz-adv-x="465" 
d="M275 700h170v-130l-70 -110h-80l40 100h-60v140zM320 0q-67 -10 -127.5 -10t-101.5 41t-41 109v560h175v-535q0 -15 10 -25t25 -10h60v-130z" />
    <glyph glyph-name="ldot" unicode="&#x140;" horiz-adv-x="490" 
d="M50 0zM320 0q-67 -10 -127.5 -10t-101.5 41t-41 109v560h175v-535q0 -15 10 -25t25 -10h60v-130zM290 425h180v-150h-180v150z" />
    <glyph glyph-name="Lslash" unicode="&#x141;" horiz-adv-x="635" 
d="M80 393v307h180v-206l90 51v-165l-90 -51v-189h365v-140h-545v228l-60 -33v165z" />
    <glyph glyph-name="lslash" unicode="&#x142;" horiz-adv-x="370" 
d="M350 0q-67 -10 -127.5 -10t-101.5 41t-41 109v88l-60 -33v165l60 33v307h175v-209l95 54v-165l-95 -54v-161q0 -15 10 -25t25 -10h60v-130z" />
    <glyph glyph-name="Nacute" unicode="&#x143;" horiz-adv-x="730" 
d="M60 0zM670 0h-190l-240 420v-420h-180v700h190l240 -420v420h180v-700zM295 721l60 170h180l-110 -170h-130z" />
    <glyph glyph-name="nacute" unicode="&#x144;" 
d="M50 0zM345 395q-53 0 -120 -20v-375h-175v530h155l10 -50q47 31 96.5 45.5t83.5 14.5h45q68 0 109 -41t41 -109v-390h-175v360q0 15 -10 25t-25 10h-35zM255 570l60 170h180l-110 -170h-130z" />
    <glyph glyph-name="Ncommaaccent" unicode="&#x145;" horiz-adv-x="730" 
d="M60 0zM670 0h-190l-240 420v-420h-180v700h190l240 -420v420h180v-700zM280 -30h170v-130l-70 -110h-80l40 100h-60v140z" />
    <glyph glyph-name="ncommaaccent" unicode="&#x146;" 
d="M50 0zM345 395q-53 0 -120 -20v-375h-175v530h155l10 -50q47 31 96.5 45.5t83.5 14.5h45q68 0 109 -41t41 -109v-390h-175v360q0 15 -10 25t-25 10h-35zM230 -30h170v-130l-70 -110h-80l40 100h-60v140z" />
    <glyph glyph-name="Ncaron" unicode="&#x147;" horiz-adv-x="730" 
d="M60 0zM670 0h-190l-240 420v-420h-180v700h190l240 -420v420h180v-700zM300 891l65 -80l65 80h125l-120 -170h-140l-120 170h125z" />
    <glyph glyph-name="ncaron" unicode="&#x148;" 
d="M50 0zM345 395q-53 0 -120 -20v-375h-175v530h155l10 -50q47 31 96.5 45.5t83.5 14.5h45q68 0 109 -41t41 -109v-390h-175v360q0 15 -10 25t-25 10h-35zM260 742l65 -80l65 80h125l-120 -170h-140l-120 170h125z" />
    <glyph glyph-name="Omacron" unicode="&#x14c;" horiz-adv-x="730" 
d="M40 0zM510 510q0 60 -60 60h-170q-60 0 -60 -60v-320q0 -60 60 -60h170q60 0 60 60v320zM690 190q0 -105 -47.5 -152.5t-152.5 -47.5h-250q-105 0 -152.5 47.5t-47.5 152.5v320q0 105 47.5 152.5t152.5 47.5h250q105 0 152.5 -47.5t47.5 -152.5v-320zM215 881h300v-120
h-300v120z" />
    <glyph glyph-name="omacron" unicode="&#x14d;" 
d="M40 0zM590 150q0 -75 -42.5 -117.5t-117.5 -42.5h-230q-75 0 -117.5 42.5t-42.5 117.5v230q0 75 42.5 117.5t117.5 42.5h230q75 0 117.5 -42.5t42.5 -117.5v-230zM415 365q0 40 -40 40h-120q-40 0 -40 -40v-200q0 -40 40 -40h120q40 0 40 40v200zM165 710h300v-120h-300
v120z" />
    <glyph glyph-name="Ohungarumlaut" unicode="&#x150;" horiz-adv-x="730" 
d="M40 0zM510 510q0 60 -60 60h-170q-60 0 -60 -60v-320q0 -60 60 -60h170q60 0 60 60v320zM690 190q0 -105 -47.5 -152.5t-152.5 -47.5h-250q-105 0 -152.5 47.5t-47.5 152.5v320q0 105 47.5 152.5t152.5 47.5h250q105 0 152.5 -47.5t47.5 -152.5v-320zM390 741l70 170h135
l-100 -170h-105zM215 741l70 170h135l-100 -170h-105z" />
    <glyph glyph-name="ohungarumlaut" unicode="&#x151;" 
d="M40 0zM590 150q0 -75 -42.5 -117.5t-117.5 -42.5h-230q-75 0 -117.5 42.5t-42.5 117.5v230q0 75 42.5 117.5t117.5 42.5h230q75 0 117.5 -42.5t42.5 -117.5v-230zM415 365q0 40 -40 40h-120q-40 0 -40 -40v-200q0 -40 40 -40h120q40 0 40 40v200zM330 570l70 170h135
l-100 -170h-105zM155 570l70 170h135l-100 -170h-105z" />
    <glyph glyph-name="OE" unicode="&#x152;" horiz-adv-x="995" 
d="M975 0h-735q-105 0 -152.5 47.5t-47.5 152.5v300q0 105 47.5 152.5t152.5 47.5h735v-140h-335v-135h255v-140h-255v-145h335v-140zM460 140v420h-180q-60 0 -60 -60v-300q0 -60 60 -60h180z" />
    <glyph glyph-name="oe" unicode="&#x153;" horiz-adv-x="945" 
d="M885 10q-143 -20 -295 -20q-70 0 -105 35q-39 -35 -105 -35h-180q-75 0 -117.5 42.5t-42.5 117.5v230q0 75 42.5 117.5t117.5 42.5h180q62 0 105 -35q43 35 100 35h160q75 0 117.5 -42.5t42.5 -117.5v-185h-335v-40q0 -15 10 -25t25 -10q100 0 280 15v-125zM395 365
q0 40 -40 40h-100q-40 0 -40 -40v-200q0 -40 40 -40h100q40 0 40 40v200zM610 415q-40 0 -40 -40v-55h160v55q0 40 -40 40h-80z" />
    <glyph glyph-name="Racute" unicode="&#x154;" horiz-adv-x="720" 
d="M60 0zM60 700h420q105 0 152.5 -47.5t47.5 -152.5v-90q0 -83 -27.5 -129t-87.5 -61l125 -220h-195l-115 210h-140v-210h-180v700zM500 500q0 60 -60 60h-200v-210h200q60 0 60 60v90zM270 731l60 170h180l-110 -170h-130z" />
    <glyph glyph-name="racute" unicode="&#x155;" horiz-adv-x="460" 
d="M50 0zM355 385q-63 0 -130 -30v-355h-175v530h155l10 -65q86 75 180 75h45v-155h-85zM155 571l60 170h180l-110 -170h-130z" />
    <glyph glyph-name="Rcommaaccent" unicode="&#x156;" horiz-adv-x="720" 
d="M60 0zM60 700h420q105 0 152.5 -47.5t47.5 -152.5v-90q0 -83 -27.5 -129t-87.5 -61l125 -220h-195l-115 210h-140v-210h-180v700zM500 500q0 60 -60 60h-200v-210h200q60 0 60 60v90zM275 -30h170v-130l-70 -110h-80l40 100h-60v140z" />
    <glyph glyph-name="rcommaaccent" unicode="&#x157;" horiz-adv-x="460" 
d="M50 0zM355 385q-63 0 -130 -30v-355h-175v530h155l10 -65q86 75 180 75h45v-155h-85zM55 -30h170v-130l-70 -110h-80l40 100h-60v140z" />
    <glyph glyph-name="Rcaron" unicode="&#x158;" horiz-adv-x="720" 
d="M60 0zM60 700h420q105 0 152.5 -47.5t47.5 -152.5v-90q0 -83 -27.5 -129t-87.5 -61l125 -220h-195l-115 210h-140v-210h-180v700zM500 500q0 60 -60 60h-200v-210h200q60 0 60 60v90zM285 901l65 -80l65 80h125l-120 -170h-140l-120 170h125z" />
    <glyph glyph-name="rcaron" unicode="&#x159;" horiz-adv-x="460" 
d="M50 0zM355 385q-63 0 -130 -30v-355h-175v530h155l10 -65q86 75 180 75h45v-155h-85zM175 740l65 -80l65 80h125l-120 -170h-140l-120 170h125z" />
    <glyph glyph-name="Sacute" unicode="&#x15a;" horiz-adv-x="670" 
d="M30 0zM39 145q274 -15 371 -15q23 0 36.5 13.5t13.5 36.5v90h-230q-105 0 -152.5 47.5t-47.5 152.5v30q0 105 47.5 152.5t152.5 47.5h351v-140h-311q-60 0 -60 -60v-20q0 -60 60 -60h180q98 0 144 -46t46 -144v-50q0 -98 -46 -144t-144 -46q-51 0 -108 2l-92 4
q-102 5 -211 14v135zM255 731l60 170h180l-110 -170h-130z" />
    <glyph glyph-name="sacute" unicode="&#x15b;" horiz-adv-x="580" 
d="M20 0zM30 140q203 -15 320 -15q15 0 25 10t10 25v35h-215q-68 0 -109 41t-41 109v35q0 68 41 109t109 41h340v-130h-280q-15 0 -25 -10t-10 -25t10 -25t25 -10h180q68 0 109 -41t41 -109v-40q0 -68 -41 -109t-109 -41q-177 0 -380 20v130zM210 571l60 170h180l-110 -170
h-130z" />
    <glyph glyph-name="Scedilla" unicode="&#x15e;" horiz-adv-x="670" 
d="M30 0zM39 145q274 -15 371 -15q23 0 36.5 13.5t13.5 36.5v90h-230q-105 0 -152.5 47.5t-47.5 152.5v30q0 105 47.5 152.5t152.5 47.5h351v-140h-311q-60 0 -60 -60v-20q0 -60 60 -60h180q98 0 144 -46t46 -144v-50q0 -98 -46 -144t-144 -46q-51 0 -108 2l-92 4
q-102 5 -211 14v135zM345 11v-40h10q49 0 74.5 -24t25.5 -66t-25.5 -66t-74.5 -24h-120v65h100q35 0 35 25t-35 25h-75v105h85z" />
    <glyph glyph-name="scedilla" unicode="&#x15f;" horiz-adv-x="580" 
d="M30 140q203 -15 320 -15q15 0 25 10t10 25v35h-215q-68 0 -109 41t-41 109v35q0 68 41 109t109 41h340v-130h-280q-15 0 -25 -10t-10 -25t10 -25t25 -10h180q68 0 109 -41t41 -109v-40q0 -68 -41 -109t-100 -41t-109 2v-22h10q49 0 74.5 -24t25.5 -66t-25.5 -66
t-74.5 -24h-120v65h100q35 0 35 25t-35 25h-75v91q-36 2 -195 14v130z" />
    <glyph glyph-name="Scaron" unicode="&#x160;" horiz-adv-x="670" 
d="M30 0zM39 145q274 -15 371 -15q23 0 36.5 13.5t13.5 36.5v90h-230q-105 0 -152.5 47.5t-47.5 152.5v30q0 105 47.5 152.5t152.5 47.5h351v-140h-311q-60 0 -60 -60v-20q0 -60 60 -60h180q98 0 144 -46t46 -144v-50q0 -98 -46 -144t-144 -46q-51 0 -108 2l-92 4
q-102 5 -211 14v135zM270 901l65 -80l65 80h125l-120 -170h-140l-120 170h125z" />
    <glyph glyph-name="scaron" unicode="&#x161;" horiz-adv-x="580" 
d="M20 0zM30 140q203 -15 320 -15q15 0 25 10t10 25v35h-215q-68 0 -109 41t-41 109v35q0 68 41 109t109 41h340v-130h-280q-15 0 -25 -10t-10 -25t10 -25t25 -10h180q68 0 109 -41t41 -109v-40q0 -68 -41 -109t-109 -41q-177 0 -380 20v130zM220 741l65 -80l65 80h125
l-120 -170h-140l-120 170h125z" />
    <glyph glyph-name="Tcommaaccent" unicode="&#x162;" horiz-adv-x="620" 
d="M10 0zM400 0h-180v560h-210v140h600v-140h-210v-560zM225 -30h170v-130l-70 -110h-80l40 100h-60v140z" />
    <glyph glyph-name="tcommaaccent" unicode="&#x163;" horiz-adv-x="440" 
d="M20 0zM420 0q-97 -10 -190 -10q-68 0 -109 41t-41 109v255h-60v135h60l20 120h155v-120h125v-135h-125v-230q0 -15 10 -25t25 -10h130v-130zM165 -39h170v-130l-70 -110h-80l40 100h-60v140z" />
    <glyph glyph-name="Tcaron" unicode="&#x164;" horiz-adv-x="620" 
d="M10 0zM400 0h-180v560h-210v140h600v-140h-210v-560zM245 901l65 -80l65 80h125l-120 -170h-140l-120 170h125z" />
    <glyph glyph-name="tcaron" unicode="&#x165;" horiz-adv-x="600" 
d="M410 700h170v-130l-70 -110h-80l40 100h-60v140zM420 0q-97 -10 -190 -10q-68 0 -109 41t-41 109v255h-60v135h60l20 120h155v-120h125v-135h-125v-230q0 -15 10 -25t25 -10h130v-130z" />
    <glyph glyph-name="Umacron" unicode="&#x16a;" horiz-adv-x="750" 
d="M60 0zM510 700h180v-510q0 -105 -47.5 -152.5t-152.5 -47.5h-230q-105 0 -152.5 47.5t-47.5 152.5v510h180v-510q0 -60 60 -60h150q60 0 60 60v510zM225 871h300v-120h-300v120z" />
    <glyph glyph-name="umacron" unicode="&#x16b;" horiz-adv-x="640" 
d="M50 0zM295 135q53 0 120 20v375h175v-530h-155l-10 50q-47 -31 -96.5 -45.5t-83.5 -14.5h-45q-68 0 -109 41t-41 109v390h175v-360q0 -15 10 -25t25 -10h35zM170 710h300v-120h-300v120z" />
    <glyph glyph-name="Uring" unicode="&#x16e;" horiz-adv-x="750" 
d="M60 0zM510 700h180v-510q0 -105 -47.5 -152.5t-152.5 -47.5h-230q-105 0 -152.5 47.5t-47.5 152.5v510h180v-510q0 -60 60 -60h150q60 0 60 60v510zM405 916q49 0 74.5 -24t25.5 -66v-15q0 -42 -25.5 -66t-74.5 -24h-60q-49 0 -74.5 24t-25.5 66v15q0 42 25.5 66t74.5 24
h60zM420 821q0 30 -30 30h-30q-30 0 -30 -30v-5q0 -30 30 -30h30q30 0 30 30v5z" />
    <glyph glyph-name="uring" unicode="&#x16f;" horiz-adv-x="640" 
d="M50 0zM295 135q53 0 120 20v375h175v-530h-155l-10 50q-47 -31 -96.5 -45.5t-83.5 -14.5h-45q-68 0 -109 41t-41 109v390h175v-360q0 -15 10 -25t25 -10h35zM350 755q49 0 74.5 -24t25.5 -66v-15q0 -42 -25.5 -66t-74.5 -24h-60q-49 0 -74.5 24t-25.5 66v15q0 42 25.5 66
t74.5 24h60zM365 660q0 30 -30 30h-30q-30 0 -30 -30v-5q0 -30 30 -30h30q30 0 30 30v5z" />
    <glyph glyph-name="Uhungarumlaut" unicode="&#x170;" horiz-adv-x="750" 
d="M60 0zM510 700h180v-510q0 -105 -47.5 -152.5t-152.5 -47.5h-230q-105 0 -152.5 47.5t-47.5 152.5v510h180v-510q0 -60 60 -60h150q60 0 60 60v510zM400 721l70 170h135l-100 -170h-105zM225 721l70 170h135l-100 -170h-105z" />
    <glyph glyph-name="uhungarumlaut" unicode="&#x171;" horiz-adv-x="640" 
d="M50 0zM295 135q53 0 120 20v375h175v-530h-155l-10 50q-47 -31 -96.5 -45.5t-83.5 -14.5h-45q-68 0 -109 41t-41 109v390h175v-360q0 -15 10 -25t25 -10h35zM345 570l70 170h135l-100 -170h-105zM170 570l70 170h135l-100 -170h-105z" />
    <glyph glyph-name="Uogonek" unicode="&#x172;" horiz-adv-x="750" 
d="M60 0zM510 700h180v-510q0 -105 -47.5 -152.5t-152.5 -47.5h-230q-105 0 -152.5 47.5t-47.5 152.5v510h180v-510q0 -60 60 -60h150q60 0 60 60v510zM480 -190q-47 -10 -100 -10t-79 23.5t-26 58.5q0 56 57 92q26 16 58 26h100q-65 -25 -101 -60q-19 -17 -19 -41t33.5 -24
t76.5 10v-75z" />
    <glyph glyph-name="uogonek" unicode="&#x173;" horiz-adv-x="640" 
d="M50 0zM295 135q53 0 120 20v375h175v-530h-155l-10 50q-47 -31 -96.5 -45.5t-83.5 -14.5h-45q-68 0 -109 41t-41 109v390h175v-360q0 -15 10 -25t25 -10h35zM580 -190q-47 -10 -100 -10t-79 23.5t-26 58.5q0 56 57 92q26 16 58 26h100q-65 -25 -101 -60q-19 -17 -19 -41
t33.5 -24t76.5 10v-75z" />
    <glyph glyph-name="Ydieresis" unicode="&#x178;" horiz-adv-x="670" 
d="M0 0zM-20 700h190l165 -340l165 340h190l-265 -515v-185h-180v185zM365 871h170v-140h-170v140zM135 871h170v-140h-170v140z" />
    <glyph glyph-name="Zacute" unicode="&#x179;" horiz-adv-x="610" 
d="M20 0zM590 560l-350 -420h350v-140h-570v140l350 420h-350v140h570v-140zM225 731l60 170h180l-110 -170h-130z" />
    <glyph glyph-name="zacute" unicode="&#x17a;" horiz-adv-x="535" 
d="M20 0zM515 395l-275 -260h275v-135h-495v135l275 260h-275v135h495v-135zM180 571l60 170h180l-110 -170h-130z" />
    <glyph glyph-name="Zdotaccent" unicode="&#x17b;" horiz-adv-x="610" 
d="M20 0zM590 560l-350 -420h350v-140h-570v140l350 420h-350v140h570v-140zM220 901h170v-140h-170v140z" />
    <glyph glyph-name="zdotaccent" unicode="&#x17c;" horiz-adv-x="535" 
d="M20 0zM515 395l-275 -260h275v-135h-495v135l275 260h-275v135h495v-135zM192 730h170v-140h-170v140z" />
    <glyph glyph-name="Zcaron" unicode="&#x17d;" horiz-adv-x="610" 
d="M20 0zM590 560l-350 -420h350v-140h-570v140l350 420h-350v140h570v-140zM240 901l65 -80l65 80h125l-120 -170h-140l-120 170h125z" />
    <glyph glyph-name="zcaron" unicode="&#x17e;" horiz-adv-x="535" 
d="M20 0zM515 395l-275 -260h275v-135h-495v135l275 260h-275v135h495v-135zM205 741l65 -80l65 80h125l-120 -170h-140l-120 170h125z" />
    <glyph glyph-name="florin" unicode="&#x192;" horiz-adv-x="460" 
d="M313.5 565q-11.5 -10 -13.5 -25l-5 -50h155l-20 -135h-165l-55 -385q-10 -66 -58 -107q-51 -43 -117 -43q-85 0 -165 10l20 130h110q15 0 26.5 10t13.5 25l50 360h-70l20 135h80l10 70q8 64 56.5 107t118.5 43q61 0 126.5 -4t108.5 -6l-20 -125h-180q-15 0 -26.5 -10z
" />
    <glyph glyph-name="Scommaaccent" unicode="&#x218;" horiz-adv-x="670" 
d="M30 0zM39 145q274 -15 371 -15q23 0 36.5 13.5t13.5 36.5v90h-230q-105 0 -152.5 47.5t-47.5 152.5v30q0 105 47.5 152.5t152.5 47.5h351v-140h-311q-60 0 -60 -60v-20q0 -60 60 -60h180q98 0 144 -46t46 -144v-50q0 -98 -46 -144t-144 -46q-51 0 -108 2l-92 4
q-102 5 -211 14v135zM255 -39h170v-130l-70 -110h-80l40 100h-60v140z" />
    <glyph glyph-name="scommaaccent" unicode="&#x219;" horiz-adv-x="580" 
d="M20 0zM30 140q203 -15 320 -15q15 0 25 10t10 25v35h-215q-68 0 -109 41t-41 109v35q0 68 41 109t109 41h340v-130h-280q-15 0 -25 -10t-10 -25t10 -25t25 -10h180q68 0 109 -41t41 -109v-40q0 -68 -41 -109t-109 -41q-177 0 -380 20v130zM205 -39h170v-130l-70 -110h-80
l40 100h-60v140z" />
    <glyph glyph-name="circumflex" unicode="&#x2c6;" horiz-adv-x="380" 
d="M0 635l120 170h140l120 -170h-125l-65 80l-65 -80h-125z" />
    <glyph glyph-name="caron" unicode="&#x2c7;" horiz-adv-x="380" 
d="M125 805l65 -80l65 80h125l-120 -170h-140l-120 170h125z" />
    <glyph glyph-name="breve" unicode="&#x2d8;" horiz-adv-x="360" 
d="M130 655q-130 0 -130 130v30h130v-25q0 -15 10 -25t25 -10h30q15 0 25 10t10 25v25h130v-30q0 -130 -130 -130h-100z" />
    <glyph glyph-name="dotaccent" unicode="&#x2d9;" horiz-adv-x="170" 
d="M0 805h170v-140h-170v140z" />
    <glyph glyph-name="ring" unicode="&#x2da;" horiz-adv-x="0" 
d="M-100 830q49 0 74.5 -24t25.5 -66v-15q0 -42 -25.5 -66t-74.5 -24h-60q-49 0 -74.5 24t-25.5 66v15q0 42 25.5 66t74.5 24h60zM-85 735q0 30 -30 30h-30q-30 0 -30 -30v-5q0 -30 30 -30h30q30 0 30 30v5z" />
    <glyph glyph-name="ogonek" unicode="&#x2db;" horiz-adv-x="205" 
d="M205 -190q-47 -10 -100 -10t-79 23.5t-26 58.5q0 56 57 92q26 16 58 26h100q-65 -25 -101 -60q-19 -17 -19 -41t33.5 -24t76.5 10v-75z" />
    <glyph glyph-name="tilde" unicode="&#x2dc;" horiz-adv-x="350" 
d="M235 765q32 0 50 40l65 -40q-9 -32 -24 -56q-35 -59 -91 -59q-21 0 -36.5 8t-29 17t-26.5 17t-28 8q-32 0 -50 -40l-65 40q16 62 59 97q22 18 49.5 18t43 -8t29 -17t26.5 -17t28 -8z" />
    <glyph glyph-name="hungarumlaut" unicode="&#x2dd;" horiz-adv-x="380" 
d="M175 635l70 170h135l-100 -170h-105zM0 635l70 170h135l-100 -170h-105z" />
    <glyph glyph-name="afii10023" unicode="&#x401;" horiz-adv-x="635" 
d="M615 0h-555v700h555v-140h-375v-135h295v-140h-295v-145h375v-140zM140 900h170v-140h-170v140zM370 900h170v-140h-170v140z" />
    <glyph glyph-name="afii10051" unicode="&#x402;" horiz-adv-x="790" 
d="M719 31q-41 -41 -115 -41t-154 10v135h95q15 0 25 10t10 25v100q0 23 -13.5 36.5t-40.5 13.5q-51 0 -106 -4t-90 -6v-310h-180v560h-140v140h500v-140h-180v-110q39 2 76 4q83 6 173 6q181 0 181 -190v-130q0 -68 -41 -109z" />
    <glyph glyph-name="afii10052" unicode="&#x403;" horiz-adv-x="615" 
d="M240 0h-180v700h545v-140h-365v-560zM260 730l60 170h180l-110 -170h-130z" />
    <glyph glyph-name="afii10053" unicode="&#x404;" horiz-adv-x="620" 
d="M600 10q-223 -20 -370 -20q-98 0 -144 46t-46 144v320q0 105 47.5 152.5t152.5 47.5h360v-140h-320q-60 0 -60 -60v-85h266v-140h-266v-95q0 -23 13.5 -36.5t34.5 -13.5t46 0.5t52 1.5t54.5 2t71 4t108.5 7v-135z" />
    <glyph glyph-name="afii10054" unicode="&#x405;" horiz-adv-x="670" 
d="M39 145q274 -15 371 -15q23 0 36.5 13.5t13.5 36.5v90h-230q-105 0 -152.5 47.5t-47.5 152.5v30q0 105 47.5 152.5t152.5 47.5h351v-140h-311q-60 0 -60 -60v-20q0 -60 60 -60h180q98 0 144 -46t46 -144v-50q0 -98 -46 -144t-144 -46q-51 0 -108 2l-92 4q-102 5 -211 14
v135z" />
    <glyph glyph-name="afii10055" unicode="&#x406;" horiz-adv-x="420" 
d="M390 0h-360v140h90v420h-90v140h360v-140h-90v-420h90v-140z" />
    <glyph glyph-name="afii10056" unicode="&#x407;" horiz-adv-x="420" 
d="M390 0h-360v140h90v420h-90v140h360v-140h-90v-420h90v-140zM10 890h170v-140h-170v140zM240 890h170v-140h-170v140z" />
    <glyph glyph-name="afii10057" unicode="&#x408;" horiz-adv-x="460" 
d="M354 36q-46 -46 -141.5 -46t-202.5 10v135q78 -5 160 -5q23 0 36.5 13.5t13.5 36.5v380h-130v140h310v-520q0 -98 -46 -144z" />
    <glyph glyph-name="afii10058" unicode="&#x409;" horiz-adv-x="1095" 
d="M224 31.5q-41 -41.5 -101 -41.5t-113 10v135h45q19 0 31.5 13t13.5 32l30 520h520v-240h215q105 0 152.5 -47.5t47.5 -152.5v-60q0 -105 -47.5 -152.5t-152.5 -47.5h-385v560h-185l-25 -415q-5 -72 -46 -113.5zM885 260q0 60 -60 60h-175v-180h175q60 0 60 60v60z" />
    <glyph glyph-name="afii10059" unicode="&#x40a;" horiz-adv-x="1080" 
d="M635 440h215q105 0 152.5 -47.5t47.5 -152.5v-40q0 -105 -47.5 -152.5t-152.5 -47.5h-385v300h-225v-300h-180v700h180v-260h225v260h170v-260zM870 240q0 60 -60 60h-175v-160h175q60 0 60 60v40z" />
    <glyph glyph-name="afii10060" unicode="&#x40b;" horiz-adv-x="790" 
d="M750 0h-180v270q0 23 -13.5 36.5t-40.5 13.5q-51 0 -106 -4t-90 -6v-310h-180v560h-140v140h500v-140h-180v-110q39 2 76 4q83 6 172 6q182 0 182 -190v-270z" />
    <glyph glyph-name="afii10061" unicode="&#x40c;" horiz-adv-x="675" 
d="M280 710l60 170h180l-110 -170h-130zM570 710q25 0 90 -10v-135h-40q-15 0 -27 -9.5t-18 -20.5l-95 -180l195 -355h-190l-155 285h-90v-285h-180v700h180v-275h90l100 190q22 42 54.5 68.5t85.5 26.5z" />
    <glyph glyph-name="afii10062" unicode="&#x40e;" horiz-adv-x="690" 
d="M228 -10q-50 0 -103 10v135h90q29 0 40 23q5 10 5 21.5t-5 20.5l-275 500h200l180 -355l150 355h200l-255 -550q-35 -79 -84 -118q-54 -42 -143 -42zM300 730q-130 0 -130 130v30h130v-25q0 -15 10 -25t25 -10h30q15 0 25 10t10 25v25h130v-30q0 -130 -130 -130h-100z
" />
    <glyph glyph-name="afii10145" unicode="&#x40f;" horiz-adv-x="730" 
d="M60 0v700h180v-560h250v560h180v-700h-215l-10 -130h-160l-10 130h-215z" />
    <glyph glyph-name="afii10017" unicode="&#x410;" horiz-adv-x="710" 
d="M185 0h-195l265 700h200l265 -700h-195l-45 125h-250zM275 255h160l-80 235z" />
    <glyph glyph-name="afii10018" unicode="&#x411;" horiz-adv-x="710" 
d="M240 430h240q105 0 152.5 -47.5t47.5 -152.5v-30q0 -105 -47.5 -152.5t-152.5 -47.5h-420v700h555v-140h-375v-130zM500 230q0 60 -60 60h-200v-150h200q60 0 60 60v30z" />
    <glyph glyph-name="afii10019" unicode="&#x412;" horiz-adv-x="710" 
d="M60 700h400q98 0 144 -44.5t46 -135.5q0 -60 -26 -97.5t-64 -52.5q81 -22 110 -108q10 -31 10 -72q0 -98 -46 -144t-144 -46h-430v700zM500 220q0 60 -60 60h-200v-140h200q60 0 60 60v20zM470 500q0 60 -60 60h-170v-140h170q60 0 60 60v20z" />
    <glyph glyph-name="afii10020" unicode="&#x413;" horiz-adv-x="615" 
d="M240 0h-180v700h545v-140h-365v-560z" />
    <glyph glyph-name="afii10021" unicode="&#x414;" horiz-adv-x="780" 
d="M160 700h525v-560h75v-270h-170l-10 130h-390l-10 -130h-170v270h65q29 33 43.5 74.5t16.5 75.5zM505 140v420h-185l-15 -250q-3 -61 -30 -123q-11 -26 -25 -47h255z" />
    <glyph glyph-name="afii10022" unicode="&#x415;" horiz-adv-x="635" 
d="M615 0h-555v700h555v-140h-375v-135h295v-140h-295v-145h375v-140z" />
    <glyph glyph-name="afii10024" unicode="&#x416;" horiz-adv-x="1010" 
d="M905 710q25 0 90 -10v-135h-40q-15 0 -27 -9.5t-18 -20.5l-95 -180l195 -355h-190l-155 285h-70v-285h-180v285h-70l-155 -285h-190l195 355l-95 180q-6 11 -18 20.5t-27 9.5h-40v135q65 10 90 10q53 0 85.5 -26.5t54.5 -68.5l100 -190h70v275h180v-275h70l100 190
q22 42 54.5 68.5t85.5 26.5z" />
    <glyph glyph-name="afii10025" unicode="&#x417;" horiz-adv-x="640" 
d="M20 145q255 -15 360 -15q23 0 36.5 13.5t13.5 36.5v40q0 60 -60 60h-240v140h220q60 0 60 60v20q0 60 -60 60h-320v140h370q98 0 144 -44.5t46 -135.5q0 -60 -27.5 -97.5t-72.5 -52.5q81 -22 110 -108q10 -31 10 -72v-10q0 -98 -46 -144t-144 -46q-167 0 -400 20v135z
" />
    <glyph glyph-name="afii10026" unicode="&#x418;" horiz-adv-x="730" 
d="M670 0h-180v430l-240 -430h-190v700h180v-430l240 430h190v-700z" />
    <glyph glyph-name="afii10027" unicode="&#x419;" horiz-adv-x="730" 
d="M490 0v430l-240 -430h-190v700h180v-430l240 430h190v-700h-180zM310 750q-130 0 -130 130v30h130v-25q0 -15 10 -25t25 -10h30q15 0 25 10t10 25v25h130v-30q0 -130 -130 -130h-100z" />
    <glyph glyph-name="afii10028" unicode="&#x41a;" horiz-adv-x="675" 
d="M570 710q25 0 90 -10v-135h-40q-15 0 -27 -9.5t-18 -20.5l-95 -180l195 -355h-190l-155 285h-90v-285h-180v700h180v-275h90l100 190q22 42 54.5 68.5t85.5 26.5z" />
    <glyph glyph-name="afii10029" unicode="&#x41b;" horiz-adv-x="745" 
d="M224 31.5q-41 -41.5 -101 -41.5t-113 10v135h45q19 0 31.5 13t13.5 32l30 520h555v-700h-180v560h-210l-25 -415q-5 -72 -46 -113.5z" />
    <glyph glyph-name="afii10030" unicode="&#x41c;" horiz-adv-x="900" 
d="M660 390l-140 -250h-140l-140 250v-390h-180v700h190l200 -370l200 370h190v-700h-180v390z" />
    <glyph glyph-name="afii10031" unicode="&#x41d;" horiz-adv-x="730" 
d="M670 0h-180v285h-250v-285h-180v700h180v-275h250v275h180v-700z" />
    <glyph glyph-name="afii10032" unicode="&#x41e;" horiz-adv-x="730" 
d="M510 510q0 60 -60 60h-170q-60 0 -60 -60v-320q0 -60 60 -60h170q60 0 60 60v320zM690 190q0 -105 -47.5 -152.5t-152.5 -47.5h-250q-105 0 -152.5 47.5t-47.5 152.5v320q0 105 47.5 152.5t152.5 47.5h250q105 0 152.5 -47.5t47.5 -152.5v-320z" />
    <glyph glyph-name="afii10033" unicode="&#x41f;" horiz-adv-x="730" 
d="M670 0h-180v560h-250v-560h-180v700h610v-700z" />
    <glyph glyph-name="afii10034" unicode="&#x420;" horiz-adv-x="710" 
d="M60 700h420q105 0 152.5 -47.5t47.5 -152.5v-100q0 -105 -47.5 -152.5t-152.5 -47.5h-240v-200h-180v700zM500 500q0 60 -60 60h-200v-220h200q60 0 60 60v100z" />
    <glyph glyph-name="afii10035" unicode="&#x421;" horiz-adv-x="620" 
d="M600 10q-223 -20 -370 -20q-98 0 -144 46t-46 144v320q0 105 47.5 152.5t152.5 47.5h360v-140h-320q-60 0 -60 -60v-320q0 -23 13.5 -36.5t34.5 -13.5t46 0.5t52 1.5t54.5 2t71 4t108.5 7v-135z" />
    <glyph glyph-name="afii10036" unicode="&#x422;" horiz-adv-x="620" 
d="M400 0h-180v560h-210v140h600v-140h-210v-560z" />
    <glyph glyph-name="afii10037" unicode="&#x423;" horiz-adv-x="690" 
d="M228 -10q-50 0 -103 10v135h90q29 0 40 23q5 10 5 21.5t-5 20.5l-275 500h200l180 -355l150 355h200l-255 -550q-35 -79 -84 -118q-54 -42 -143 -42z" />
    <glyph glyph-name="afii10038" unicode="&#x424;" horiz-adv-x="880" 
d="M850 250q0 -105 -47.5 -152.5t-152.5 -47.5h-120v-70h-180v70h-120q-105 0 -152.5 47.5t-47.5 152.5v200q0 105 47.5 152.5t152.5 47.5h120v70h180v-70h120q105 0 152.5 -47.5t47.5 -152.5v-200zM670 450q0 60 -60 60h-90v-320h90q60 0 60 60v200zM210 250q0 -60 60 -60
h90v320h-90q-60 0 -60 -60v-200z" />
    <glyph glyph-name="afii10039" unicode="&#x425;" horiz-adv-x="660" 
d="M465 700h200l-225 -350l230 -350h-200l-140 220l-140 -220h-200l230 350l-225 350h199l136 -220z" />
    <glyph glyph-name="afii10040" unicode="&#x426;" horiz-adv-x="765" 
d="M60 0v700h180v-560h250v560h180v-560h75v-270h-170l-10 130h-505z" />
    <glyph glyph-name="afii10041" unicode="&#x427;" horiz-adv-x="705" 
d="M465 230q-120 -10 -226.5 -10t-152.5 46t-46 144v290h180v-290q0 -23 13.5 -36.5t36.5 -13.5q82 0 195 10v330h180v-700h-180v230z" />
    <glyph glyph-name="afii10042" unicode="&#x428;" horiz-adv-x="1000" 
d="M940 0h-880v700h180v-560h170v560h180v-560h170v560h180v-700z" />
    <glyph glyph-name="afii10043" unicode="&#x429;" horiz-adv-x="1035" 
d="M60 0v700h180v-560h170v560h180v-560h170v560h180v-560h75v-270h-170l-10 130h-775z" />
    <glyph glyph-name="afii10044" unicode="&#x42a;" horiz-adv-x="800" 
d="M330 700v-240h240q105 0 152.5 -47.5t47.5 -152.5v-60q0 -105 -47.5 -152.5t-152.5 -47.5h-420v560h-140v140h320zM590 260q0 60 -60 60h-200v-180h200q60 0 60 60v60z" />
    <glyph glyph-name="afii10045" unicode="&#x42b;" horiz-adv-x="990" 
d="M240 460h230q105 0 152.5 -47.5t47.5 -152.5v-60q0 -105 -47.5 -152.5t-152.5 -47.5h-410v700h180v-240zM930 0h-180v700h180v-700zM490 260q0 60 -60 60h-190v-180h190q60 0 60 60v60z" />
    <glyph glyph-name="afii10046" unicode="&#x42c;" horiz-adv-x="710" 
d="M240 460h240q105 0 152.5 -47.5t47.5 -152.5v-60q0 -105 -47.5 -152.5t-152.5 -47.5h-420v700h180v-240zM500 260q0 60 -60 60h-200v-180h200q60 0 60 60v60z" />
    <glyph glyph-name="afii10047" unicode="&#x42d;" horiz-adv-x="620" 
d="M20 145q244 -15 330 -15q23 0 36.5 13.5t13.5 36.5v95h-266v140h266v85q0 60 -60 60h-310v140h350q105 0 152.5 -47.5t47.5 -152.5v-320q0 -98 -46 -144t-144 -46q-150 0 -370 20v135z" />
    <glyph glyph-name="afii10048" unicode="&#x42e;" horiz-adv-x="970" 
d="M930 190q0 -105 -47.5 -152.5t-152.5 -47.5h-200q-105 0 -152.5 47.5t-47.5 152.5v95h-90v-285h-180v700h180v-275h90v85q0 105 47.5 152.5t152.5 47.5h200q105 0 152.5 -47.5t47.5 -152.5v-320zM750 510q0 60 -60 60h-120q-60 0 -60 -60v-320q0 -60 60 -60h120
q60 0 60 60v320z" />
    <glyph glyph-name="afii10049" unicode="&#x42f;" horiz-adv-x="720" 
d="M660 0h-180v230h-135l-125 -230h-190l130 240q-64 15 -92 61t-28 129v70q0 105 47.5 152.5t152.5 47.5h420v-700zM220 430q0 -60 60 -60h200v190h-200q-60 0 -60 -60v-70z" />
    <glyph glyph-name="afii10065" unicode="&#x430;" horiz-adv-x="595" 
d="M260 130q53 0 120 20v60h-145q-15 0 -25 -10t-10 -25v-10q0 -15 10 -25t25 -10h25zM75 520q183 20 330 20q68 0 109 -41t41 -109v-390h-155l-10 50q-47 -31 -96.5 -45.5t-83.5 -14.5h-35q-68 0 -109 41t-41 109v45q0 68 41 109t109 41h205v40q0 15 -10 25t-25 10
q-65 0 -143.5 -6t-126.5 -9v125z" />
    <glyph glyph-name="afii10066" unicode="&#x431;" horiz-adv-x="610" 
d="M215 440q97 20 170 20h45q68 0 109 -41t41 -109v-160q0 -75 -42.5 -117.5t-117.5 -42.5h-220q-75 0 -117.5 42.5t-42.5 117.5v355q0 72 48.5 121t131.5 59l340 40l15 -140l-310 -35q-50 -6 -50 -50v-60zM365 125q40 0 40 40v125q0 15 -10 25t-25 10h-35q-39 0 -70 -4
t-50 -6v-150q0 -40 40 -40h110z" />
    <glyph glyph-name="afii10067" unicode="&#x432;" horiz-adv-x="600" 
d="M430 0h-380v530h350q67 0 108.5 -39.5t41.5 -88.5t-21 -80t-59 -42q45 -8 77.5 -44t32.5 -96t-41.5 -100t-108.5 -40zM405 170q0 15 -10 25t-25 10h-145v-85h145q15 0 25 10t10 25v15zM375 375q0 15 -10 25t-25 10h-115v-90h115q15 0 25 10t10 25v20z" />
    <glyph glyph-name="afii10068" unicode="&#x433;" horiz-adv-x="490" 
d="M480 530v-135h-255v-395h-175v530h430z" />
    <glyph glyph-name="afii10069" unicode="&#x434;" horiz-adv-x="690" 
d="M285 250q-5 -70 -40 -115h175v260h-125zM595 530v-395h75v-255h-166l-10 120h-308l-10 -120h-166v255h65q40 47 45 105l20 290h455z" />
    <glyph glyph-name="afii10070" unicode="&#x435;" horiz-adv-x="600" 
d="M255 415q-40 0 -40 -40v-55h170v55q0 40 -40 40h-90zM540 10q-193 -20 -350 -20q-68 0 -109 41t-41 109v240q0 75 42.5 117.5t117.5 42.5h200q75 0 117.5 -42.5t42.5 -117.5v-185h-345v-40q0 -15 10 -25t25 -10q99 0 290 15v-125z" />
    <glyph glyph-name="afii10072" unicode="&#x436;" horiz-adv-x="875" 
d="M190 0h-190l150 265l-50 100q-16 30 -50 30h-35v135l25 5q27 5 55 5t50.5 -8t40.5 -21q35 -25 54 -66l55 -110h55v195h175v-195h55l55 110q30 64 95 87q22 8 44 8q34 0 61 -5l25 -5v-135h-35q-34 0 -50 -30l-50 -100l150 -265h-190l-110 200h-50v-200h-175v200h-50z" />
    <glyph glyph-name="afii10073" unicode="&#x437;" horiz-adv-x="550" 
d="M20 130q191 -15 300 -15q15 0 25 10t10 25v15q0 15 -10 25t-25 10h-220v125h200q15 0 25 10t10 25v10q0 15 -10 25t-25 10h-270v125h330q67 0 108.5 -39.5t41.5 -88.5q0 -100 -90 -122q45 -8 77.5 -44t32.5 -100t-41 -105t-109 -41q-167 0 -360 20v120z" />
    <glyph glyph-name="afii10074" unicode="&#x438;" 
d="M395 530h185v-530h-175v290l-170 -290h-185v530h175v-290z" />
    <glyph glyph-name="afii10075" unicode="&#x439;" 
d="M260 580q-130 0 -130 130v30h130v-25q0 -15 10 -25t25 -10h30q15 0 25 10t10 25v25h130v-30q0 -130 -130 -130h-100zM395 530h185v-530h-175v290l-170 -290h-185v530h175v-290z" />
    <glyph glyph-name="afii10076" unicode="&#x43a;" horiz-adv-x="600" 
d="M300 200h-75v-200h-175v530h175v-195h80l55 110q30 64 94 87q23 8 44 8q34 0 62 -5l25 -5v-135h-35q-34 0 -50 -30l-50 -100l150 -265h-190z" />
    <glyph glyph-name="afii10077" unicode="&#x43b;" horiz-adv-x="640" 
d="M110 -10q-43 0 -100 10v130h40q38 0 40 40l20 360h480v-530h-175v395h-140l-15 -255q-4 -68 -45 -109t-105 -41z" />
    <glyph glyph-name="afii10078" unicode="&#x43c;" horiz-adv-x="780" 
d="M455 90h-130l-100 180v-270h-175v530h185l155 -280l155 280h185v-530h-175v270z" />
    <glyph glyph-name="afii10079" unicode="&#x43d;" 
d="M405 335v195h175v-530h-175v200h-180v-200h-175v530h175v-195h180z" />
    <glyph glyph-name="afii10080" unicode="&#x43e;" 
d="M590 150q0 -75 -42.5 -117.5t-117.5 -42.5h-230q-75 0 -117.5 42.5t-42.5 117.5v230q0 75 42.5 117.5t117.5 42.5h230q75 0 117.5 -42.5t42.5 -117.5v-230zM415 365q0 40 -40 40h-120q-40 0 -40 -40v-200q0 -40 40 -40h120q40 0 40 40v200z" />
    <glyph glyph-name="afii10081" unicode="&#x43f;" 
d="M580 530v-530h-175v395h-180v-395h-175v530h530z" />
    <glyph glyph-name="afii10082" unicode="&#x440;" 
d="M345 395q-53 0 -120 -20v-240h150q40 0 40 40v185q0 15 -10 25t-25 10h-35zM225 0v-170h-175v700h155l10 -50q47 31 96.5 45.5t83.5 14.5h45q68 0 109 -41t41 -109v-230q0 -75 -42.5 -117.5t-117.5 -42.5h-205z" />
    <glyph glyph-name="afii10083" unicode="&#x441;" horiz-adv-x="550" 
d="M520 10q-187 -20 -330 -20q-68 0 -109 41t-41 109v230q0 75 42.5 117.5t117.5 42.5h320v-135h-265q-40 0 -40 -40v-195q0 -15 10 -25t25 -10q90 0 270 15v-130z" />
    <glyph glyph-name="afii10084" unicode="&#x442;" horiz-adv-x="525" 
d="M350 395v-395h-175v395h-165v135h505v-135h-165z" />
    <glyph glyph-name="afii10085" unicode="&#x443;" horiz-adv-x="570" 
d="M190 -180q-53 0 -130 10v130h90q38 0 49.5 21t-4.5 59l-205 490h185l125 -340l105 340h185l-200 -550q-29 -79 -75 -119.5t-125 -40.5z" />
    <glyph glyph-name="afii10086" unicode="&#x444;" horiz-adv-x="795" 
d="M755 160q0 -75 -42.5 -117.5t-117.5 -42.5h-110v-170h-175v170h-110q-75 0 -117.5 42.5t-42.5 117.5v210q0 75 42.5 117.5t117.5 42.5h110v170h175v-170h110q75 0 117.5 -42.5t42.5 -117.5v-210zM215 175q0 -40 40 -40h70v260h-70q-40 0 -40 -40v-180zM580 355
q0 40 -40 40h-60v-260h60q40 0 40 40v180z" />
    <glyph glyph-name="afii10087" unicode="&#x445;" horiz-adv-x="570" 
d="M380 530h195l-170 -265l175 -265h-195l-100 160l-100 -160h-195l175 265l-170 265h195l95 -160z" />
    <glyph glyph-name="afii10088" unicode="&#x446;" horiz-adv-x="675" 
d="M480 0h-430v530h175v-395h180v395h175v-395h75v-255h-165z" />
    <glyph glyph-name="afii10089" unicode="&#x447;" horiz-adv-x="615" 
d="M250 285q85 0 140 5v240h175v-530h-175v160q-107 -10 -200 -10q-68 0 -109 41t-41 109v230h175v-210q0 -15 10 -25t25 -10z" />
    <glyph glyph-name="afii10090" unicode="&#x448;" horiz-adv-x="855" 
d="M50 0v530h175v-395h115v395h175v-395h115v395h175v-530h-755z" />
    <glyph glyph-name="afii10091" unicode="&#x449;" horiz-adv-x="900" 
d="M705 0h-655v530h175v-395h115v395h175v-395h115v395h175v-395h75v-255h-165z" />
    <glyph glyph-name="afii10092" unicode="&#x44a;" horiz-adv-x="700" 
d="M325 530v-165h205q68 0 109 -41t41 -109v-65q0 -68 -41 -109t-109 -41h-380v395h-140v135h315zM470 125q15 0 25 10t10 25v45q0 15 -10 25t-25 10h-145v-115h145z" />
    <glyph glyph-name="afii10093" unicode="&#x44b;" horiz-adv-x="860" 
d="M50 0v530h175v-165h195q68 0 109 -41t41 -109v-65q0 -68 -41 -109t-109 -41h-370zM360 125q15 0 25 10t10 25v44q0 15 -10 25t-25 10h-135v-114h135zM810 0h-175v530h175v-530z" />
    <glyph glyph-name="afii10094" unicode="&#x44c;" horiz-adv-x="600" 
d="M50 0v530h175v-165h205q68 0 109 -41t41 -109v-65q0 -68 -41 -109t-109 -41h-380zM370 125q15 0 25 10t10 25v45q0 15 -10 25t-25 10h-145v-115h145z" />
    <glyph glyph-name="afii10095" unicode="&#x44d;" horiz-adv-x="550" 
d="M360 -10q-147 0 -330 20v120q180 -15 270 -15q15 0 25 10t10 25v50h-225v125h225v40q0 40 -40 40h-255v125h310q75 0 117.5 -42.5t42.5 -117.5v-230q0 -68 -41 -109t-109 -41z" />
    <glyph glyph-name="afii10096" unicode="&#x44e;" horiz-adv-x="850" 
d="M300 335v45q0 75 42.5 117.5t117.5 42.5h190q75 0 117.5 -42.5t42.5 -117.5v-230q0 -75 -42.5 -117.5t-117.5 -42.5h-190q-75 0 -117.5 42.5t-42.5 117.5v50h-75v-200h-175v530h175v-195h75zM635 365q0 40 -40 40h-80q-40 0 -40 -40v-200q0 -40 40 -40h80q40 0 40 40v200
z" />
    <glyph glyph-name="afii10097" unicode="&#x44f;" horiz-adv-x="620" 
d="M570 530v-530h-175v165h-85l-95 -165h-185l100 175q-42 15 -66 51t-24 89v65q0 68 41 109t109 41h380zM250 405q-15 0 -25 -10t-10 -25v-45q0 -15 10 -25t25 -10h145v115h-145z" />
    <glyph glyph-name="afii10071" unicode="&#x451;" horiz-adv-x="600" 
d="M100 730h170v-140h-170v140zM330 730h170v-140h-170v140zM255 415q-40 0 -40 -40v-55h170v55q0 40 -40 40h-90zM540 10q-193 -20 -350 -20q-68 0 -109 41t-41 109v240q0 75 42.5 117.5t117.5 42.5h200q75 0 117.5 -42.5t42.5 -117.5v-185h-345v-40q0 -15 10 -25t25 -10
q99 0 290 15v-125z" />
    <glyph glyph-name="afii10099" unicode="&#x452;" horiz-adv-x="650" 
d="M255 430q97 20 170 20h45q68 0 109 -41t41 -109v-160q0 -68 -41 -109t-106.5 -41t-132.5 10v130h70q15 0 25 10t10 25v115q0 15 -10 25t-25 10h-35q-39 0 -70 -4t-50 -6v-305h-175v495h-60v125h60l20 80h155v-80h125v-125h-125v-65z" />
    <glyph glyph-name="afii10100" unicode="&#x453;" horiz-adv-x="490" 
d="M480 530v-135h-255v-395h-175v530h430zM170 570l60 170h180l-110 -170h-130z" />
    <glyph glyph-name="afii10101" unicode="&#x454;" horiz-adv-x="550" 
d="M520 10q-187 -20 -330 -20q-68 0 -109 41t-41 109v230q0 75 42.5 117.5t117.5 42.5h310v-125h-255q-40 0 -40 -40v-40h225v-125h-225v-50q0 -15 10 -25t25 -10q90 0 270 15v-120z" />
    <glyph glyph-name="afii10102" unicode="&#x455;" horiz-adv-x="580" 
d="M30 140q203 -15 320 -15q15 0 25 10t10 25v35h-215q-68 0 -109 41t-41 109v35q0 68 41 109t109 41h340v-130h-280q-15 0 -25 -10t-10 -25t10 -25t25 -10h180q68 0 109 -41t41 -109v-40q0 -68 -41 -109t-109 -41q-177 0 -380 20v130z" />
    <glyph glyph-name="afii10103" unicode="&#x456;" horiz-adv-x="320" 
d="M270 510v-510h-175v375h-75v135h250zM95 710h175v-140h-175v140z" />
    <glyph glyph-name="afii10104" unicode="&#x457;" horiz-adv-x="340" 
d="M-30 710h170v-140h-170v140zM200 710h170v-140h-170v140zM284 510v-510h-175v375h-75v135h250z" />
    <glyph glyph-name="afii10105" unicode="&#x458;" horiz-adv-x="300" 
d="M100 -180q-93 0 -190 10v130h130q15 0 25 10t10 25v515h175v-540q0 -68 -41 -109t-109 -41zM75 710h175v-140h-175v140z" />
    <glyph glyph-name="afii10106" unicode="&#x459;" horiz-adv-x="905" 
d="M110 -10q-43 0 -100 10v130h40q38 0 40 40l20 360h445v-175h180q68 0 109 -41t41 -109v-55q0 -68 -41 -109t-109 -41h-345v395h-115l-15 -255q-4 -68 -45 -109t-105 -41zM675 120q15 0 25 10t10 25v35q0 15 -10 25t-25 10h-120v-105h120z" />
    <glyph glyph-name="afii10107" unicode="&#x45a;" horiz-adv-x="895" 
d="M380 0v225h-155v-225h-175v530h175v-175h155v175h165v-175h180q68 0 109 -41t41 -109v-55q0 -68 -41 -109t-109 -41h-345zM665 130q15 0 25 10t10 25v25q0 15 -10 25t-25 10h-120v-95h120z" />
    <glyph glyph-name="afii10108" unicode="&#x45b;" horiz-adv-x="660" 
d="M255 430q97 20 170 20h45q68 0 109 -41t41 -109v-300h-175v280q0 15 -10 25t-25 10h-35q-39 0 -70 -4t-50 -6v-305h-175v495h-60v125h60l20 80h155v-80h125v-125h-125v-65z" />
    <glyph glyph-name="afii10109" unicode="&#x45c;" horiz-adv-x="600" 
d="M240 570l60 170h180l-110 -170h-130zM300 200h-75v-200h-175v530h175v-195h80l55 110q30 64 94 87q23 8 44 8q34 0 62 -5l25 -5v-135h-35q-34 0 -50 -30l-50 -100l150 -265h-190z" />
    <glyph glyph-name="afii10110" unicode="&#x45e;" horiz-adv-x="570" 
d="M240 570q-130 0 -130 130v30h130v-25q0 -15 10 -25t25 -10h30q15 0 25 10t10 25v25h130v-30q0 -130 -130 -130h-100zM190 -180q-53 0 -130 10v130h90q38 0 49.5 21t-4.5 59l-205 490h185l125 -340l105 340h185l-200 -550q-29 -79 -75 -119.5t-125 -40.5z" />
    <glyph glyph-name="afii10193" unicode="&#x45f;" 
d="M50 0v530h175v-395h180v395h175v-530h-175l-10 -120h-160l-10 120h-175z" />
    <glyph glyph-name="afii10050" unicode="&#x490;" horiz-adv-x="615" 
d="M240 560v-560h-180v700h375l10 100h160v-240h-365z" />
    <glyph glyph-name="afii10098" unicode="&#x491;" horiz-adv-x="490" 
d="M315 530l10 90h155v-225h-254v-395h-176v530h265z" />
    <glyph glyph-name="endash" unicode="&#x2013;" 
d="M30 285v130h570v-130h-570z" />
    <glyph glyph-name="emdash" unicode="&#x2014;" horiz-adv-x="800" 
d="M30 285v130h740v-130h-740z" />
    <glyph glyph-name="quoteleft" unicode="&#x2018;" horiz-adv-x="240" 
d="M210 450h-180v140l70 110h90l-40 -100h60v-150z" />
    <glyph glyph-name="quoteright" unicode="&#x2019;" horiz-adv-x="240" 
d="M30 700h180v-140l-70 -110h-90l40 100h-60v150z" />
    <glyph glyph-name="quotesinglbase" unicode="&#x201a;" horiz-adv-x="240" 
d="M30 150h180v-140l-70 -110h-90l40 100h-60v150z" />
    <glyph glyph-name="quotedblleft" unicode="&#x201c;" horiz-adv-x="460" 
d="M430 450h-180v140l70 110h90l-40 -100h60v-150zM210 450h-180v140l70 110h90l-40 -100h60v-150z" />
    <glyph glyph-name="quotedblright" unicode="&#x201d;" horiz-adv-x="460" 
d="M30 700h180v-140l-70 -110h-90l40 100h-60v150zM250 700h180v-140l-70 -110h-90l40 100h-60v150z" />
    <glyph glyph-name="quotedblbase" unicode="&#x201e;" horiz-adv-x="460" 
d="M30 150h180v-140l-70 -110h-90l40 100h-60v150zM250 150h180v-140l-70 -110h-90l40 100h-60v150z" />
    <glyph glyph-name="dagger" unicode="&#x2020;" horiz-adv-x="590" 
d="M570 480v-140h-180v-510h-180v510h-190v140h190v220h180v-220h180z" />
    <glyph glyph-name="daggerdbl" unicode="&#x2021;" horiz-adv-x="570" 
d="M380 10v-180h-180v180h-180v140h180v230h-180v140h180v180h180v-180h170v-140h-170v-230h170v-140h-170z" />
    <glyph glyph-name="bullet" unicode="&#x2022;" horiz-adv-x="360" 
d="M200 480q49 0 79.5 -30.5t30.5 -79.5v-40q0 -49 -30.5 -79.5t-79.5 -30.5h-40q-49 0 -79.5 30.5t-30.5 79.5v40q0 49 30.5 79.5t79.5 30.5h40z" />
    <glyph glyph-name="ellipsis" unicode="&#x2026;" horiz-adv-x="720" 
d="M30 150h180v-150h-180v150zM270 150h180v-150h-180v150zM510 150h180v-150h-180v150z" />
    <glyph glyph-name="perthousand" unicode="&#x2030;" horiz-adv-x="1230" 
d="M150 0l400 700h150l-390 -700h-160zM360 465q0 -60 -32.5 -92.5t-92.5 -32.5h-90q-60 0 -92.5 32.5t-32.5 92.5v120q0 60 32.5 92.5t92.5 32.5h90q60 0 92.5 -32.5t32.5 -92.5v-120zM240 585q0 35 -35 35h-30q-35 0 -35 -35v-120q0 -35 35 -35h30q35 0 35 35v120z
M840 115q0 -60 -32.5 -92.5t-92.5 -32.5h-90q-60 0 -92.5 32.5t-32.5 92.5v120q0 60 32.5 92.5t92.5 32.5h90q60 0 92.5 -32.5t32.5 -92.5v-120zM720 235q0 35 -35 35h-30q-35 0 -35 -35v-120q0 -35 35 -35h30q35 0 35 35v120zM1210 115q0 -60 -32.5 -92.5t-92.5 -32.5h-90
q-60 0 -92.5 32.5t-32.5 92.5v120q0 60 32.5 92.5t92.5 32.5h90q60 0 92.5 -32.5t32.5 -92.5v-120zM1090 235q0 35 -35 35h-30q-35 0 -35 -35v-120q0 -35 35 -35h30q35 0 35 35v120z" />
    <glyph glyph-name="guilsinglleft" unicode="&#x2039;" horiz-adv-x="361" 
d="M341 90l-101 -90l-230 265l230 265l101 -89l-152 -176z" />
    <glyph glyph-name="guilsinglright" unicode="&#x203a;" horiz-adv-x="361" 
d="M172 265l-152 176l101 89l230 -265l-230 -265l-101 90z" />
    <glyph glyph-name="zerosuperior" unicode="&#x2070;" horiz-adv-x="380" 
d="M360 465q0 -60 -32.5 -92.5t-92.5 -32.5h-90q-60 0 -92.5 32.5t-32.5 92.5v120q0 60 32.5 92.5t92.5 32.5h90q60 0 92.5 -32.5t32.5 -92.5v-120zM240 585q0 35 -35 35h-30q-35 0 -35 -35v-120q0 -35 35 -35h30q35 0 35 35v120z" />
    <glyph glyph-name="foursuperior" unicode="&#x2074;" horiz-adv-x="360" 
d="M205 415h-195v90l115 205h125l-115 -205h70v65h110v-65h35v-90h-35v-75h-110v75z" />
    <glyph glyph-name="Euro" unicode="&#x20ac;" horiz-adv-x="660" 
d="M640 10q-223 -20 -370 -20q-98 0 -144 46t-46 144v40h-70l10 105h60v40h-70l10 105h60v30q0 105 47.5 152.5t152.5 47.5h360v-140h-320q-60 0 -60 -60v-30h240v-105h-240v-40h240v-105h-240v-40q0 -23 13.5 -36.5t34.5 -13.5t46 0.5t52 1.5t54.5 2t71 4t108.5 7v-135z
" />
    <glyph glyph-name="afii61352" unicode="&#x2116;" horiz-adv-x="1110" 
d="M750 300h300v-100h-300v100zM670 0h-190l-240 420v-420h-180v700h190l240 -420v420h180v-700zM1070 465q0 -60 -32.5 -92.5t-92.5 -32.5h-90q-60 0 -92.5 32.5t-32.5 92.5v120q0 60 32.5 92.5t92.5 32.5h90q60 0 92.5 -32.5t32.5 -92.5v-120zM950 585q0 35 -35 35h-30
q-35 0 -35 -35v-120q0 -35 35 -35h30q35 0 35 35v120z" />
    <glyph glyph-name="trademark" unicode="&#x2122;" horiz-adv-x="930" 
d="M260 610v-280h-130v280h-120v90h370v-90h-120zM600 400l-60 110v-180h-130v370h130l110 -200l110 200h130v-370h-130v180l-60 -110h-100z" />
    <glyph glyph-name="commaaccent" horiz-adv-x="170" 
d="M0 -30h170v-130l-70 -110h-80l40 100h-60v140z" />
    <glyph glyph-name=".ttfautohint" horiz-adv-x="620" 
d="M0 0z" />
    </font>
</defs>
</svg>
